вход на сайт

Имя пользователя :
Пароль :

Восстановление пароля Регистрация
(2013) Inna / Party Never Ends (Electronic dance, electropop, eurodance, house) [FLAC (tracks+.cue), lossless]
Рейтинг:
(голосов: 1)



[img]{THEME}/images/logopost.png[/img]



Исполнитель: Inna
Альбом: Party Never Ends
Тип альбом: Студийный
Год выпуска: 2013
Жанр: Electronic dance, electropop, eurodance, house
Страна (Издатель, Каталожный номер): Romania(ROTON, 5948204495626)
Аудиокодек: FLAC (*.flac)
Тип рипа: tracks+.cue
Битрейт: lossless
Лог файлы: присутствуют
Наличие сканов в содержимом раздачи: Есть
Продолжительность: 00:55:41

Wikipedia| Official page | Facebook | last.fm

Об исполнителе: Inna - румынская певица. Она родилась 16 октября 1986 года в городе Мангалия. Детство провела в небольшом поселении Нептун. Музыкальную карьеру Inna начала в 2008 году и в этом же году вышел первый сингл Hot, благодаря которому она сразу же стала популярной во всём мире. В свои молодые годы девушка успела завоевать уважение во многих странах мира, в том числе в Польше, Казахстане, России, Румынии, Болгарии, Венгрии и пр.Tреклист:
01. In Your Eyes (2:47)
02. We Like To Party (3:52)
03. More Than Friends feat. Daddy Yanke (3:59)
04. Fall In Love - Lie (3:58)
05. Shining Star (2:52)
06. Take Me Down To Mexico (4:10)
07. Famous (3:32)
08. Take It Off (3:30)
09. Tonight (3:43)
10. Jadore (3:17)
11. Caliente (3:23)
12. Crazy Sexy Wild (3:08)
13. INNDiA feat. Play&Win (3:36)
14. OK (3:24)
15. Live Your Life (3:09)
16. Party Never Ends (3:12)Лог создания рипа ▼Text
Exact Audio Copy V1.0 beta 3 from 29. August 2011

EAC extraction logfile from 24. April 2013, 9:25

Inna / Patry Never Ends

Used drive : ASUS DRW-2014L1T Adapter: 2 ID: 1

Read mode : Secure
Utilize accurate stream : Yes
Defeat audio cache : Yes
Make use of C2 pointers : No

Read offset correction : 6
Overread into Lead-In and Lead-Out : No
Fill up missing offset samples with silence : Yes
Delete leading and trailing silent blocks : No
Null samples used in CRC calculations : Yes
Used interface : Native Win32 interface for Win NT & 2000
Gap handling : Appended to previous track

Used output format : Internal WAV Routines
Sample format : 44.100 Hz; 16 Bit; Stereo


TOC of the extracted CD

Track | Start | Length | Start sector | End sector
---------------------------------------------------------
1 | 0:00.00 | 2:47.74 | 0 | 12598
2 | 2:47.74 | 3:52.63 | 12599 | 30061
3 | 6:40.62 | 3:59.59 | 30062 | 48045
4 | 10:40.46 | 3:58.58 | 48046 | 65953
5 | 14:39.29 | 2:52.65 | 65954 | 78918
6 | 17:32.19 | 4:10.63 | 78919 | 97731
7 | 21:43.07 | 3:32.53 | 97732 | 113684
8 | 25:15.60 | 3:30.08 | 113685 | 129442
9 | 28:45.68 | 3:43.65 | 129443
0257bd3b39f886a174087fb87143908187408fcd(2013) Inna / Party Never Ends (Electronic dance, electropop, eurodance, house) [FLAC (tracks+.cue), lossless] (2013) Inna / Party Never Ends (Electronic dance, electropop, eurodance, house) [FLAC (tracks+.cue), lossless] " />

Аплоадер: Админ, дата: 26-04-2013, 11:23, торрент скачан: 359 раз

Понравилась раздача? Посмотрите эти:
  • (2013) Inna ‬/ Party Never Ends, Pt.2 (Japan Version) ( Pop,Dance) [ MP3, 3 ...
  • (2013) Bon Jovi / What About Now (Deluxe Edition) (Hard Rock) [FLAC (tracks ...
  • (2009) ONE REPUBLIC / Waking Up (Pop-Rock/Alternative) [FLAC (tracks+.cue) ...
  • (2009) SHAKIRA / She Wolf (US Edition) (Pop) [Flac (tracks+.cue), lossless] ...
  • (2010) Deftones / Diamond Eyes (Nu metal / Alternative) [FLAC, (tracks+ cu ...
  • (2008) Pink / Funhouse (Pop) [FLAC (tracks) lossless]
  • (2010) Eminem / Recovery (Rap / Hip-Hop) [FLAC (tracks+.cue) lossless]
  • (2010) Баста и Гуф / Баста / Гуф (Rap) [FLAC (tracks+.cue) lossless]
  • (2010) Michael Jackson - Michael (Pop) [FLAC, (tracks+.cue), lossless]
  • (2010) Нюша / Выбирать чудо (Pop) [FLAC(tracks+.cue), lossless]
  • (2010) Unkle - Where Did The Night Fall, (Electronic, Trip-Hop), [FLAC (tra ...
  • (2006) Великие Композиторы / Жизнь и Творчество - Бетховен (Classical) [Fla ...
  • (2011) Red Hot Chili Peppers / Im With You (Alternative Rock/Funk) [FLAC (t ...
  • (2001) Bloodthorn / Under the Reign of Terror (Black/Death Metal) [Flac(tra ...
  • (2009) Koan / When The Silence Is Speaking (Ambient, Downtempo, Chillout) [ ...
  • (2012) Britney Spears / Oops...I Did It Again - The Best Of Britney Spears ...
  • (2012) Medina / Forever (Gold Edition) (2 CD) (Pop, Dance, Synth-pop) [FLAC ...
  • (2012, Сборник) VA / Now Thats What I Call Music! 83 (2 CD) (Pop, Dance) [F ...
  • (2010) Ne-Yo / Libra Scale (Japanese Edition) (RnB) [FLAC (tracks+.cue) los ...
  • (2010) Rihanna / Loud (R&B) [FLAC (tracks+.cue), lossless]
  • (2011) Nero / Welcome Reality (Dubstep / House / Drum & Bass) [FLAC (tracks ...
  • (2010) Morcheeba / Blood Like Lemonade ( Electronic, Downtempo, Pop, Trip-h ...
  • (2010) Linkin Park / A Thousand Suns (Alternative, Electronic) [FLAC (track ...
  • (2012) The Cranberries / Roses (Alternative Rock / Pop-Rock) [FLAC (tracks+ ...
  • (2012) Noize MC / Новый Альбом (Rap) [FLAC (tracks+.cue), lossless]
  • Информация
    Посетители, находящиеся в группе Гости, не могут оставлять комментарии к данной публикации.