вход на сайт

Имя пользователя :
Пароль :

Восстановление пароля Регистрация
(2013) Mylène Farmer (Mylene Farmer) / Je te dis tout (Pop, Electronic) [FLAC (image+.cue), lossless]
Рейтинг:
(голосов: 1)



[img]{THEME}/images/logopost.png[/img]



Исполнитель: Mylène Farmer (Mylene Farmer)
Страна: Франция
Альбом: Je te dis tout
Тип альбома: Single
Год выпуска: 2013
Жанр: Pop, Electronic
Страна (Издатель, Каталожный номер): EU, Франция (Polydor, 372 950 - 5)
Штриховой код: 6 02537 29505 0
Аудиокодек: FLAC (*.flac)
Тип рипа: image+.cue
Битрейт: lossless
Log-файлы: Присутствуют.
Наличие сканов в содержимом раздачи: Нет.
Продолжительность: 00:15:10


Об исполнителе: Милен Фармер (фр. Mylène Farmer, настоящая фамилия — Готье (фр. Gautier)); — французская певица, актриса и поэтесса. Одна из самых известных современных французских исполнительниц популярной музыки не только во Франции, но и во всем мире.
Милен Фармер родилась в Канаде 12 сентября 1961 года, и первые годы своей жизни провела в городке Пьерфон в окрестностях Монреаля. Её родители — французы: отец, Макс Готье, был инженером и работал на строительстве Маникаганской плотины, мать, Маргёрит Мартэн, занималась домашним хозяйством. В семье Милен была третьим ребёнком из четырёх — у неё была старшая сестра Брижитт и брат Жан-Лу, после Милен в семье Готье родился четвёртый ребёнок, которого назвали Мишель.


Wikipedia | YouTube | Facebook | Official page

Tреклист:
01. Je Te Dis Tout (05:31)
02. Je Te Dis Tout (Instrumental) (05:28)
03. Je Te Dis Tout (Edit) (04:10)


Лог создания рипа (EAC log) ▼TextExact Audio Copy V1.0 beta 3 from 29. August 2011

Отчёт EAC об извлечении, выполненном 19. апреля 2013, 19:49

Mylene Farmer / Je Te Dis Tout

Дисковод: SlimtypeDVD A DS8A5SH Adapter: 2 ID: 1

Режим чтения : Достоверность
Использование точного потока : Да
Отключение кэша аудио : Да
Использование указателей C2 : Нет

Коррекция смещения при чтении : 6
Способность читать области Lead-in и Lead-out : Нет
Заполнение пропущенных сэмплов тишиной : Да
Удаление блоков с тишиной в начале и конце : Нет
При вычислениях CRC использовались нулевые сэмплы : Да
Интерфейс : Встроенный Win32-интерфейс для Win NT/2000

Выходной формат : Пользовательский кодировщик
Выбранный битрейт : 128 kBit/s
Качество : Высокий
Добавление ID3-тега : Нет
Утилита сжатия : C:Program FilesExact Audio CopyFlacflac.exe
Дополнительные параметры : -V -8 %source%

TOC извлечённого CD

Трек | Старт | Длительность | Начальный сектор | Конечный сектор
---------------------------------------------------------------------
1 | 0:00.00 | 5:31.23 | 0 | 24847
2 | 5:31.23 | 5:28.10 | 24848 | 49457
3 | 10:59.33 | 4:10.48 | 49458 | 68255

Характеристики диапазона извлечения и сообщения об ошибках

Выбранный диапазон

Имя файла C:Documents and SettingsAdminРабочий столНовая папка (2)Mylene Farmer - Je Te Dis Tout.wav

Пиковый уровень 100.0 %
Скорость извлечения 3.3 X
Качество диапазона 100.0 %
CRC теста C7C46271
363942fd798068226b157b4ba444b883cbb8cfaa(2013) Mylène Farmer (Mylene Farmer) / Je te dis tout (Pop, Electronic) [FLAC (image+.cue), lossless] (2013) Mylène Farmer (Mylene Farmer) / Je te dis tout (Pop, Electronic) [FLAC (image+.cue), lossless] " />

Аплоадер: Админ, дата: 24-04-2013, 20:26, торрент скачан: 359 раз

Понравилась раздача? Посмотрите эти:
Информация
Посетители, находящиеся в группе Гости, не могут оставлять комментарии к данной публикации.