вход на сайт

Имя пользователя :
Пароль :

Восстановление пароля Регистрация
(2013) Митя Фомин / Наглый Ангел (Deluxe Edition) (Pop) [FLAC (image+.cue), lossless]
Рейтинг:
(голосов: 1)



[img]{THEME}/images/logopost.png[/img]



Исполнитель: Митя Фомин
Страна: Россия
Альбом: Наглый Ангел (Deluxe Edition)
Тип альбома: Студийный
Год выпуска: 2013
Жанр: Pop
Аудиокодек: FLAC (*.flac)
Тип рипа: image+.cue
Битрейт: lossless
Продолжительность: 00:50:42

Дополнительная информация:▼О релизе:
- Страна (Издатель, Каталожный номер): Россия (Gala Records, GL10781)
- Штриховой код: 4601620107818-1, 4601620107818-2
- Log-файлы: Присутствуют
- Наличие сканов в содержимом раздачи: Да. 600 dpi, JPG

Об исполнителе:
Дмитрий Анатольевич Фомин (Митя Фомин) (17 января 1974, Новосибирск, РСФСР, СССР) — российский певец, телеведущий и продюсер. Лауреат премий «Золотой Граммофон» и фестиваля «Песня Года». В 1998—2009 гг. солист поп-группы Hi-Fi.
Об альбоме:
В альбом вошло 14 треков, среди которых известные композиции «Огни большого города (Paninaro)», «Хорошая песня», «Восточный экспресс», зимный хит «Перезимуем» и дуэт с Кристиной Орсой «Не манекен». Также вошли два ремикса на песни «Восточный экспресс» и «Наглый ангел».

Wikipedia | YouTube | Facebook | Official page

Tреклист:
[03:40] 01. Шоу будет продолжаться
[03:27] 02. Огни большого города
[03:01] 03. Хорошая песня
[03:52] 04. Наглый Ангел
[03:19] 05. Перезимуем
[03:11] 06. Восточный экспресс
[04:13] 07. Дождь
[03:17] 08. Cosmopolitan (Космополитэн)
[03:18] 09. Не манекен (feat. Кристина Орса)
[03:18] 10. Время просыпаться
[02:13] 11. На перекрёстках
[03:14] 12. Beautiful Rose
[03:30] 13. Восточный экспресс (DJ Max Myers, Rifatello Remix Radio English Version)
[07:04] 14. Наглый Ангел (DJ Max Myers, DJ Arseniy, Rifatello Club Mix)

Лог создания рипа (EAC log) ▼TextExact Audio Copy V0.99 prebeta 5 from 4. May 2009

EAC extraction logfile from 3. August 2013, 3:09

Митя Фомин / Наглый Ангел (Deluxe Edition)

Used drive : PLEXTOR DVDR PX-760A Adapter: 4 ID: 2

Read mode : Secure
Utilize accurate stream : Yes
Defeat audio cache : Yes
Make use of C2 pointers : No

Read offset correction : 30
Overread into Lead-In and Lead-Out : Yes
Fill up missing offset samples with silence : Yes
Delete leading and trailing silent blocks : No
Null samples used in CRC calculations : Yes
Used interface : Installed external ASPI interface

Used output format : Internal WAV Routines
Sample format : 44.100 Hz; 16 Bit; Stereo


TOC of the extracted CD

Track | Start | Length | Start sector | End sector
---------------------------------------------------------
1 | 0:00.00 | 3:40.01 | 0 | 16500
2 | 3:40.01 | 3:27.15 | 16501 | 32040
3 | 7:07.16 | 3:01.38 | 32041 | 45653
4 | 10:08.54 | 3:52.17 | 45654 | 63070
5 | 14:00.71 | 3:19.06 | 63071 | 78001
6 | 17:20.02 | 3:11.47 | 78002 | 92373
7 | 20:31.49 | 4:13.14 | 92374 | 111362
8 | 24:44.63 | 3:17.72 | 111363 |&
cf960b4510c2ab4e3a4e4a5b93f2de9b581e17af(2013) Митя Фомин / Наглый Ангел (Deluxe Edition) (Pop) [FLAC (image+.cue), lossless] (2013) Митя Фомин / Наглый Ангел (Deluxe Edition) (Pop) [FLAC (image+.cue), lossless] " />

Аплоадер: Админ, дата: 4-08-2013, 00:09, торрент скачан: 359 раз

Понравилась раздача? Посмотрите эти:
  • (2010) Robbie Williams / In And Out Of Consciousness (Deluxe Edition) (Pop/ ...
  • (2013) Paul McCartney / New (Deluxe Edition) (Rock) [FLAC (image,+.cue), lo ...
  • (2013) Hans Zimmer / Человек из стали / Man Of Steel [Deluxe Edition] (2 CD ...
  • (2013) Митя Фомин / Наглый Ангел (Pop) [MP3, 320 / CBR]
  • (2013) Tyga / Hotel California (Deluxe Edition) (Hip-Hop) [FLAC (tracks+.c ...
  • (2013) Sarah Brightman / Dreamchaser (Deluxe Edition) (Pop, Vocal, Classica ...
  • (2013) Bon Jovi / What About Now (Deluxe Edition) (Hard Rock) [FLAC (tracks ...
  • (2010) Сергей Трофимов (Трофим) / Всё не важно (Шансон) [FLAC(image+.cue), ...
  • (2010) YELLO / Yello By Yello. The Anthology (Limited Deluxe Edition 3CD+D ...
  • (2011) Hollywood Undead / American Tragedy (Deluxe Edition) (Alternative/Hi ...
  • (2011) Bad Meets Evil [Eminem & Royce Da 59] / Hell: The Sequel [Deluxe Edi ...
  • (2008) Юрий Наумов / Рок как будто Блюз (Blues) [FLAC (Image+.cue), lossles ...
  • (2011) Daughtry / Break the Spell (Deluxe Edition) (Alt. Rock / Modern Rock ...
  • (2011) Rolling Stones / Some Girls (2CD Deluxe Digipack Edition, A&M, 278 4 ...
  • (2011) 3 Doors Down / Time Of My Life [Deluxe Edition] (Alternative Rock/Po ...
  • (2012) Rod Stewart / Merry Christmas, Baby (Deluxe Edition) (Jazz) [FLAC (i ...
  • Митя Фомин и DJ L.Rudenko / Восточный экспресс [2013, Pop, WebRip]
  • (2011) Chris Brown / F.A.M.E. (Deluxe Edition) (R&B) [FLAC (tracks+.cue), l ...
  • (2013) Hollywood Undead / Notes From The Underground Unabridged (Best Buy D ...
  • (1993) Крис Кельми / Greatest Hits (Pop-Rock) [FLAC (image+.cue), lossless] ...
  • (2011) Стас Михайлов / Только ты (Шансон) [Flac(image+.cue)Lossless]
  • (2010) Митя Фомин / Так Будет MF (Pop) [MP3, 320/CBR]
  • (2012) Soulfly / Enslaved [Deluxe Edition] (Groove Metal/Thrash Metal) [FLA ...
  • (2012) Юрий Шатунов / Я верю... (Pop) [FLAC (image+.cue), lossless]
  • (2012) Robbie Williams / Take The Crown (Deluxe Edition) (Pop, Rock) [FLAC ...
  • Информация
    Посетители, находящиеся в группе Гости, не могут оставлять комментарии к данной публикации.