вход на сайт

Имя пользователя :
Пароль :

Восстановление пароля Регистрация
(2013) Chris Norman (ex. Smokie) / There And Back (Pop Rock) [FLAC (image+.cue), lossless]
Рейтинг:
(голосов: 1)



[img]{THEME}/images/logopost.png[/img]



Исполнитель: Chris Norman
Страна: England
Альбом: There And Back
Тип альбома: Студийный
Год выпуска: 2013
Жанр: Pop Rock
Страна (Издатель, Каталожный номер): UK (Solo Sound Records, SOLOSNDCD1)
Аудиокодек: FLAC (*.flac)
Тип рипа: image+.cue
Битрейт: lossless
Продолжительность: 00:57:02
Наличие сканов в содержимом раздачи: да(JPG, 600dpi, 79Mb)

Дополнительная информация:▼О релизе:
Новый сольный альбом Chris Norman, выпущенный 13 сентября 2013 года на собственном лейбле Solo Sound Records, записанном в родном Йоркшире. В состав альбома вошли 13 новых композиций собственного сочинения, четыре из которых написаны в соавторстве с участниками нынешней группы Chris Norman Band. В том числе, две композиции написаны совместно с Pete Spencer, с другом и соратником по группе Smokie.


Wikipedia | Official page

Tреклист:
01. Im Gone - 4:53
02. Gypsy Queen - 3:26
03. Nobodys Fool - 5:30
04. Wish You Well - 6:28
05. My Jenny - 5:22
06. Whisky & Water - 4:14
07. Loves Such A Strange Thing - 3:31
08. Lovers And Friends - 3:19
09. Hard Road To Cross - 5:11
10. Hound Dog Blues - 4:22
11. Did The Monkeys Take Over The Zoo - 4:57
12. Hot Love - 4:24
13. Northern Star - 1:25

Лог создания рипа (EAC log) ▼TextExact Audio Copy V1.0 beta 3 from 29. August 2011

EAC extraction logfile from 3. October 2013, 21:23

Chris Norman / There And Back

Used drive : Optiarc BD RW BD-5300S Adapter: 0 ID: 1

Read mode : Secure
Utilize accurate stream : Yes
Defeat audio cache : Yes
Make use of C2 pointers : No

Read offset correction : 6
Overread into Lead-In and Lead-Out : No
Fill up missing offset samples with silence : Yes
Delete leading and trailing silent blocks : No
Null samples used in CRC calculations : Yes
Used interface : Native Win32 interface for Win NT & 2000

Used output format : User Defined Encoder
Selected bitrate : 1024 kBit/s
Quality : High
Add ID3 tag : No
Command line compressor : C:Program Files (x86)Exact Audio CopyFLACFLAC.EXE
Additional command line options : -8 -V -T "ARTIST=%artist%" -T "TITLE=%title%" -T "ALBUM=%albumtitle%" -T "DATE=%year%" -T "TRACKNUMBER=%tracknr%" -T "GENRE=%genre%" -T "PERFORMER=%albuminterpret%" -T "COMPOSER=%composer%" %haslyrics%--tag-from-file=LYRICS="%lyricsfile%"%haslyrics% -T "ALBUMARTIST=%albumartist%" -T "DISCNUMBER=%cdnumber%" -T "TOTALDISCS=%totalcds%" -T "TOTALTRACKS=%numtracks%" -T "COMMENT=%comment%" %source% -o %dest%


TOC of the extracted CD

Track | Start | Length | Start sector | End sector
---------------------------------------------------------
1 | 0:00.00 | 4:53.33 | 0 | 22007
2 | 4:53.33 | 3:26.01 | 22008 | 37458
3 | 8:19.34 | 5:30.12 | 37459 | 62220
4 | 13:49.46 | 6:27.66 | &nb
12d46ae44a5d0e441a47042dc082b07dc447d93a(2013) Chris Norman (ex. Smokie) / There And Back (Pop Rock) [FLAC (image+.cue), lossless] (2013) Chris Norman (ex. Smokie) / There And Back (Pop Rock) [FLAC (image+.cue), lossless] " />

Аплоадер: Админ, дата: 3-12-2013, 21:08, торрент скачан: 359 раз

Понравилась раздача? Посмотрите эти:
  • (2013) Yes / Close To The Edge (1972, remixed, CD+Blu-ray) (Progressive Roc ...
  • (2013) The Holmes Brothers / Brotherhood (Modern Electric Blues, Soul, Gosp ...
  • (2013) Buddy Guy / Rhythm & Blues (2CD) (Blues) [FLAC (image+.cue), Lossles ...
  • (2013) Innes Sibun / Lost In The Wilderness (Blues Rock, Rock) [FLAC (image ...
  • (2013) The Hamburg Blues Band / Friends For A LIVEtime (Blues Rock, Rock) [ ...
  • (2013) Leslie West / Still Climbing (Rock, Hard Rock, Blues Rock) [FLAC (im ...
  • (2013) Paul McCartney / New (Deluxe Edition) (Rock) [FLAC (image,+.cue), lo ...
  • (2013) Elton John / The Diving Board (Rock, Pop Rock) [FLAC (image+.cue), L ...
  • (2013) Govt Mule / Shout! (2CD) (Blues Rock) [FLAC (image+.cue), Lossless]
  • (2013) Prodigy & The Alchemist / Albert Einstein (Underground Hip-Hop) [FLA ...
  • (2013) Fall Out Boy / Save Rock and Roll (Pop-Punk) [ALAC (tracks), lossles ...
  • (2011) Linkin Park / LP Underground 11 (Alternative Rock) [FLAC (Image+cue) ...
  • (2012) Mark Lanegan Band / Blues Funeral (Alternative Rock/Blues Rock) [FLA ...
  • (2012) Paul Van Dyk / Evolution (Progressive House, Trance) [FLAC (tracks+. ...
  • (2012) Marconi Union / Different Colours (Post Rock, Downtempo, Ambient) [F ...
  • (2008, Сборник) VA / Relax Piano - Yesterday - Trai Tim Mua Thu - Vol.7 (Ne ...
  • (2012) Tomandandy / Resident Evil: Retribution (Score, Soundtrack)[FLAC (tr ...
  • (1996) The Rasmus / Peep (Finnish Version) (Alternative Rock) [FLAC (tracks ...
  • (2012) Buckethead / Electric Sea (Experimental/Acoustic/Ambient/Rock) [FLAC ...
  • (2012) Les Friction / Les Friction (Alt. Rock/Neo-Classical/Orchestral) [FL ...
  • (2011) SeeS / The enD (Progressive/Math Metal) [FLAC (tracks+.cue), lossles ...
  • (2012) Our Lady Peace / Curve (Alternative/Rock) [FLAC (tracks+.cue), lossl ...
  • (2012) Nine Lashes / World We View (Alt.Rock/Alt.Metal/Christian) [FLAC (tr ...
  • (2012) Dash Berlin / #musicislife (Trance) [FLAC (tracks+.сue), lossless]
  • (2012) For Today / Immortal (Metalcore, Hardcore, Christian) [FLAC (tracks+ ...
  • Информация
    Посетители, находящиеся в группе Гости, не могут оставлять комментарии к данной публикации.