вход на сайт

Имя пользователя :
Пароль :

Восстановление пароля Регистрация
(2012) Юрий Шатунов / Я верю... (Pop) [FLAC (image+.cue), lossless]
Рейтинг:
(голосов: 1)



[img]{THEME}/images/logopost.png[/img]



Исполнитель: Юрий Шатунов
Страна: Россия
Альбом: Я верю...
Тип альбома: Студийный
Год выпуска: 2012
Жанр: Pop
Страна (Издатель, Каталожный номер): Россия (АРС Рекордз, АРС 205-12)
Аудиокодек: FLAC (*.flac)
Тип рипа: image+.cue
Битрейт: lossless
Log-файл: Присутствует.
Наличие сканов в содержимом раздачи: Да. (JPG, 96DPI, 66,5MB)
Продолжительность: 01:18:44

Об исполнителе: Юрий Васильевич Шатунов (6 сентября 1973 года, Кумертау, Башкирская АССР) — советский и российский певец, легендарный солист знаменитой группы «Ласковый май».
После смерти матери был взят на воспитание тётей из посёлка Тюльган. Затем воспитывался в Акбулакском детском доме (Оренбургская область), провёл в нём год, затем был переведён в Оренбургский интернат № 2. Среди его друзей, с кем он хорошо общался, которых вспоминает и по сей день, были: Константин, Антон, Алексей, Анна, Ольга, Кристина и некоторые другие. Фамилии он уточнять не хочет.

Tреклист:
01. Юрий Шатунов - А лето цвета (04:43)
02. Юрий Шатунов - Без тебя (03:53)
03. Юрий Шатунов - От белых роз (04:11)
04. Юрий Шатунов - Это лето (03:50)
05. Юрий Шатунов - Не хочу (03:56)
06. Юрий Шатунов - Улыбка (03:12)
07. Юрий Шатунов - Глупые снежинки (06:15)
08. Юрий Шатунов - Майский вечер (03:12)
09. Юрий Шатунов - Я верю (03:09)
10. Юрий Шатунов - Тет-а-тет (03:45)
11. Юрий Шатунов - Ромашки (03:41)
12. Юрий Шатунов - Летний ливень (02:59)
13. Юрий Шатунов - Отпусти меня (03:49)
14. Юрий Шатунов - Разве можно (03:49)
15. Юрий Шатунов - Минорные аккорды (04:45)
16. Юрий Шатунов - Огромное небо (03:16)
17. Юрий Шатунов - Мой малыш (04:33)
18. Юрий Шатунов - Поиграем в прятки (04:09)
19. Юрий Шатунов - Я набираю номер твой (04:10)
20. Юрий Шатунов - Привет (03:27)

Лог создания рипа (EAC log) ▼TextExact Audio Copy V1.0 beta 3 from 29. August 2011

EAC extraction logfile from 22. July 2012, 16:06

Юрий Шатунов / Я верю...

Used drive : PLEXTOR DVDR PX-760A Adapter: 4 ID: 2

Read mode : Secure
Utilize accurate stream : Yes
Defeat audio cache : Yes
Make use of C2 pointers : No

Read offset correction : 30
Overread into Lead-In and Lead-Out : Yes
Fill up missing offset samples with silence : Yes
Delete leading and trailing silent blocks : No
Null samples used in CRC calculations : Yes
Used interface : Installed external ASPI interface

Used output format : Internal WAV Routines
Sample format : 44.100 Hz; 16 Bit; Stereo

TOC of the extracted CD

Track | Start | Length | Start sector | End sector
---------------------------------------------------------
1 | 0:00.00 | 4:43.00 | 0 | 21224
2 | 4:43.00 | 3:53.00 | 21225 | 38699
3 | 8:36.00 | 4:11.00 | 38700 | 57524
4 | 12:47.00 | 3:50.00 | 57525 | 74774
5 | 16:37.00 | 3:56.00 | 74775 | 92474
6 | 20:33.00 | 3:12.00 | 92475 | 106874
7 | 23:45.00 | 6:15.00 | 106875 | 134999
8 | 30:00.00
b120e9982643a35d493e104c51e2f09dad5de8bd(2012) Юрий Шатунов / Я верю... (Pop) [FLAC (image+.cue), lossless] (2012) Юрий Шатунов / Я верю... (Pop) [FLAC (image+.cue), lossless] " />

Аплоадер: Админ, дата: 2-11-2012, 12:56, торрент скачан: 359 раз

Понравилась раздача? Посмотрите эти:
  • Юра Шатунов / Тет-а-тет[2013, Pop, WEBRip]
  • Юрий Шатунов / Тэт-а-тэт [2013, Pop, WebRip]
  • Юрий Шатунов / А лето цвета... [2013, Pop, WebRip]
  • (2009,сборник) Вечеринка в стиле Ласковый Май (Pop) [MP3 256CBR]
  • (2012) Юрий Востров / Женщина - монстр (Шансон) [MP3, 320/СBR]
  • (2012) Юрий Шатунов / Я верю (Pop) [MP3, 320 / CBR]
  • (2012, Сборник) VA / Русские Новинки Vol.67 (Pop) [Mp3, 320/CBR]
  • (2010) Ласковый Май (Солист Юра Шатунов) / Оригинальные записи 1988-1989 (2 ...
  • (2008) Юрий Наумов / Рок как будто Блюз (Blues) [FLAC (Image+.cue), lossles ...
  • (2012) Сергей Васюта и Сладкий Сон / На белом покрывале января... (Pop) [Fl ...
  • Ласковый Май / Концерт в Олимпийском (1990)
  • Легенды Ретро FM (2007)
  • Дискотека 80х (обновленная версия) (2009)
  • Авторадио / Дискотека 80х [2010, Disco, Eurodisco, SATRip]
  • VA / Легенды Ретро FM. Выпуск VII [2012, Pop, SATRip]
  • Юра Шатунов / Белые розы (1988)
  • (2010) Ласковый Май (Солист Юра Шатунов) / Оригинальные записи 1988-1989 (2 ...
  • (Дискография) Юрий Шатунов и Ласковый май (Pop) [MP3, 112-320/CBR]
  • VA / СупердискотЭка 90-х от MTV и Радио Рекорд в Питере [2010,Pop, SATRip]
  • Украинский квартал // Выпуск 7 (Юмор, ТВ-шоу, 2011) [IPTVRip, Не требуется] ...
  • (2011, сборник) VA / Хит-Зона (Pop) [MP3, 320 kbps/CBR]
  • (1995) Юрий Шатунов / Ты помнишь... (Pop) [FLAC(image+.cue), lossless]
  • (2012, Сборник) VA / Русские Новинки Vol.63 (Pop) [Mp3, 320/CBR]
  • (2012) Юрий Воронюк / Иди на свет (Шансон) [MP3, 320/CBR]
  • Суперстар представляет: Бенефис группы "Ласковый май" [2009 г., Pop, SATRip ...
  • Информация
    Посетители, находящиеся в группе Гости, не могут оставлять комментарии к данной публикации.