вход на сайт

Имя пользователя :
Пароль :

Восстановление пароля Регистрация
(2012, Сборник) VA / Горячая 20. Весна-Лето 2012 (UA - версия) (Pop) [FLAC (image+.cue), lossless]
Рейтинг:
(голосов: 1)



[img]{THEME}/images/logopost.png[/img]



Сборник
Исполнитель: VA
Название сборника: Горячая 20. Весна-Лето 2012 (UA - версия)
Страна: Украина
Жанр: Pop
Год выпуска: 2012
Страна (Издатель, Каталожный номер): Украина (Astra, Astra333171)
Аудиокодек: FLAC
Тип рипа: image+.cue
Битрейт: lossless
Log-файл: Присутствует.
Наличие сканов в содержимом раздачи: Да.
Продолжительность: 01:10:41

Tреклист:
[03:14] 01. Юлия Савичева - Юлия
[03:31] 02. 5STA FAMILY - Вместе мы
[02:55] 03. Митя Фомин - Хорошая песня
[03:15] 04. Иракли & Даша Суворова - Нелюбовь
[03:02] 05. IOVA - Мама
[03:43] 06. DJ SMASH feat. гр.Винтаж - Москва
[03:17] 07. Джиган - Нас больше нет
[03:14] 08. Инфинити - Другая
[03:23] 09. гр.Пара Нормальных - Невеста
[02:55] 10. Борис Моисеев - Лучший из мужчин
[04:05] 11. ВИА ГРА - Алло, мам!
[03:41] 12. Лавика - В городе весна (DJ MELLOFFON radio remix)
[03:40] 13. гр.Герои - Километры
[05:07] 14. Никита - Кометы (Remix 2012)
[04:44] 15. Хасбулат Рахманов - Помни обо мне
[02:57] 16. СтаЯ - Сердце
[03:20] 17. Каникулы - Мексиканамама
[03:02] 18. Егор Сесарев - С тобой (remix by Anton Liss)
[03:21] 19. Дмитрий Колдун - Ничего
[04:03] 20. DJ M.E.G. feat. Тимати и Лазарев С. - Moscow to California

Лог создания рипа ▼TextExact Audio Copy V1.0 beta 1 from 15. November 2010

Отчёт EAC об извлечении, выполненном 15. июня 2012, 18:07

Various / Горячая 20. Весна-Лето 2012

Дисковод: ASUS DRW-24B3ST Adapter: 0 ID: 1

Режим чтения : Достоверность
Использование точного потока : Да
Отключение кэша аудио : Да
Использование указателей C2 : Нет

Коррекция смещения при чтении : 6
Способность читать области Lead-in и Lead-out : Нет
Заполнение пропущенных сэмплов тишиной : Да
Удаление блоков с тишиной в начале и конце : Нет
При вычислениях CRC использовались нулевые сэмплы : Да
Интерфейс : Встроенный Win32-интерфейс для Win NT/2000

Выходной формат : Пользовательский кодировщик
Выбранный битрейт : 896 kBit/s
Качество : Высокий
Добавление ID3-тэга : Нет
Утилита сжатия : C:Program FilesFLACflac.exe
Дополнительные параметры : -T "DATE=%y" -T "GENRE=%m" -8 -V %s

TOC извлечённого CD

Трек | Старт | Длительность | Начальный сектор | Конечный сектор
---------------------------------------------------------------------
1 | 0:00.00 | 3:14.74 | 0 | 14623
2 | 3:14.74 | 3:31.63 | 14624 | 30511
3 | 6:46.62 | 2:55.50 | 30512 | 43686
4 | 9:42.37 | 3:15.35 | 43687 | 58346
5 | 12:57.72 | 3:02.51 | 58347 | 72047
6 | 16:00.48 | 3:43.60 | 72048 | 88832
7 | 19
054e43683bd9e2ef7534122437bd5b87ef778d38(2012, Сборник) VA / Горячая 20. Весна-Лето 2012 (UA - версия) (Pop) [FLAC (image+.cue), lossless] (2012, Сборник) VA / Горячая 20. Весна-Лето 2012 (UA - версия) (Pop) [FLAC (image+.cue), lossless] " />

Аплоадер: Админ, дата: 5-07-2012, 13:41, торрент скачан: 359 раз

Понравилась раздача? Посмотрите эти:
  • (1993) Coverdale & Page / Coverdale & Page (EMI Holland)(Hard Rock) [FLAC ( ...
  • (2000) a-ha / Minor Earth | Major Sky (Alternative Rock, Synth-pop ) [FLAC ...
  • (2013) Al Di Meola / All Your Life (Fusion) [FLAC (image+.cue), lossless]
  • (2013) МакSим (Максим) / Другая реальность (Рор) [FLAC (image+.cue), lossle ...
  • (2013) Pinnick Gales Pridgen / Pinnick Gales Pridgen (Hard Rock, Heavy Blue ...
  • (2013) Krokus / Dirty Dynamite (Hard Rock) [FLAC (image+.cue), lossless]
  • (2012) Рем Дигга / Черника (Rap) [FLAC (tracks+.cue), lossless]
  • (2012) Три Кита (Зануда, Gipsy King, Тато) / Три Кита (Rap) [FLAC (tracks+. ...
  • (2010) Schiller / Breathless (Electronic) [FLAC (image+.cue), lossless]
  • (2010) БИ-2 / О чём говорят мужчины (Pop-Rock) [FLAC (image + .cue), lossle ...
  • (1997) Jazz Cafe / Simple Pleasures (Jazz, instrumental) [FLAC (image+.сue ...
  • (2012) The Blues Overdrive / The Blues Overdrive (Blues-Rock) [FLAC (image+ ...
  • (Дискография, 2006-2012) Shym (French Pop, Dance, R&B, Soul) [FLAC (image+. ...
  • (2012) Gary Clark Jr. / Blak and Blu (Blues, Rock) [FLAC (image+.cue), loss ...
  • (2012) The Rasmus / The Rasmus (Tour Edition) FLAC (tracks+.cue), lossless
  • (2012) Guf / Сам И ... (Rap) [FLAC (tracks+.cue), lossless]
  • (2012) Триада / Мои глаза открыты (Rap) [FLAC (tracks+.cue), lossless]
  • (2012) KREC / Молча проще (Rap) [FLAC (tracks+.cue), lossless]
  • (2012) Dan Balan / Freedom. Part 1 (Pop, Dance) [FLAC (image+.cue), lossles ...
  • (2012, сборник) VA | Горячая 20-ка. Весна-Лето 2012 (Pop) [MP3, 320|CBR]
  • (2012) Strange Contact / Retro (Synthpop) [FLAC (image+.сue), lossless]
  • (2012) Ария / Live In Studio (Heavy Metal) [FLAC (image+.сue), lossless]
  • (2008) Nirvana / The Best Of (Grunge, Alternative) [FLAC (image+.сue), loss ...
  • (2012) Walter Trout / Blues For The Modern Daze (Blues, Blues Rock) [FLAC ( ...
  • (2012) Елена Ваенга / Лена (Шансон) [FLAC (image+.cue), lossless]
  • Информация
    Посетители, находящиеся в группе Гости, не могут оставлять комментарии к данной публикации.