вход на сайт

Имя пользователя :
Пароль :

Восстановление пароля Регистрация
(2012) Русский стилль / Ты позови меня... (Pop) [FLAC (image+.cue), lossless]
Рейтинг:
(голосов: 1)



[img]{THEME}/images/logopost.png[/img]



Исполнитель: Русский стилль
Страна: Россия
Альбом: Ты позови меня...
Тип альбома: Студийный
Страна (Издатель, Каталожный номер): Россия (Рэй Рекордс, RRCD 02-12)
Год выпуска: 2012
Жанр: Pop
Аудиокодек: FLAC
Тип рипа: image+.cue
Битрейт: lossless
Log-файл: Присутствует.
Наличие сканов в содержимом раздачи: Да.
Продолжительность: 01:00:18

Описание: Олег Пахомов - один из лучших композиторов страны, выпустивший за 22 года более 17 сольных альбомов, включая такие проекты как: группа "Русский стиль", группа "RADIO NA SHARU PROJECT".
Его песни, которые стали супер-хитами, исполняют:
Татьяна Буланова, Виктор Королев, Владимир Белозир и другие.
Олег Пахомов сотрудничает с поэтами разных стран:
Израиля, Белоруссии, Украины, России.

Tреклист:
[04:46] 01. гр.Русский стиль - Снег во дворе
[04:20] 02. гр.Русский стиль - А в саду ромашки
[04:38] 03. гр.Русский стиль - Уезжаешь
[03:50] 04. гр.Русский стиль - Ты позови меня
[03:41] 05. гр.Русский стиль - Забудь о том
[06:40] 06. гр.Русский стиль - Ты меня любил
[05:01] 07. гр.Русский стиль - Я тебе не верю
[03:08] 08. гр.Русский стиль - Говорила мама мне
[03:59] 09. гр.Русский стиль - Где же лето?
[04:37] 10. гр.Русский стиль - Грустная история
[03:25] 11. гр.Русский стиль - Не дари мне розы
[03:40] 12. гр.Русский стиль - Нари-най
[04:14] 13. гр.Русский стиль - Мне не нужен ты
[04:19] 14. гр.Русский стиль - Эта ночь (Remix 2011)

Лог создания рипа ▼TextExact Audio Copy V1.0 beta 1 from 15. November 2010

Отчёт EAC об извлечении, выполненном 13. мая 2012, 18:09

гр.Русский стиль / Ты позови меня...

Дисковод: _NEC DV-5800E Adapter: 0 ID: 1

Режим чтения : Достоверность
Использование точного потока : Да
Отключение кэша аудио : Да
Использование указателей C2 : Нет

Коррекция смещения при чтении : 6
Способность читать области Lead-in и Lead-out : Нет
Заполнение пропущенных сэмплов тишиной : Да
Удаление блоков с тишиной в начале и конце : Нет
При вычислениях CRC использовались нулевые сэмплы : Да
Интерфейс : Установленный внешний ASPI-интерфейс

Выходной формат : Внутренние WAV-операции
Формат сэмплов : 44.100 Гц; 16 бит; стерео

TOC извлечённого CD

Трек | Старт | Длительность | Начальный сектор | Конечный сектор
---------------------------------------------------------------------
1 | 0:00.00 | 4:46.00 | 0 | 21449
2 | 4:46.00 | 4:20.00 | 21450 | 40949
3 | 9:06.00 | 4:38.00 | 40950 | 61799
4 | 13:44.00 | 3:50.00 | 61800 | 79049
5 | 17:34.00 | 3:41.00 | 79050 | 95624
6 | 21:15.00 | 6:40.00 | 95625 | 125624
7 | 27:55.00 | 5:01.00 | 125625 &
2bab2093c26f66e00d6fffd94ac7490029202bc5(2012) Русский стилль / Ты позови меня... (Pop) [FLAC (image+.cue), lossless] (2012) Русский стилль / Ты позови меня... (Pop) [FLAC (image+.cue), lossless] " />

Аплоадер: Админ, дата: 2-07-2012, 15:22, торрент скачан: 359 раз

Понравилась раздача? Посмотрите эти:
  • (2000) Lenny Kravitz / Greatest Hits (Rock, Funk) [FLAC (image+.cue), lossl ...
  • (2002) a-ha / Lifelines (Alternative Rock, Synth-pop ) [FLAC (image + .cue ...
  • (2009) Воскресение / The Best (Rock ) [APE (image + .cue), lossless]
  • (2013) Валерий Войт и группа Первомайка / Под стук колёс (Шансон) [FLAC (im ...
  • (2012) Григорий Лепс / Полный вперёд (Шансон) [FLAC (image+.cue), Lossless ...
  • (2009) НОЧНЫЕ СНАЙПЕРЫ — Живаго в Лужниках (русский рок) [WAVPack (lossless ...
  • (2008) ST / Сто из Ста (Rap) [FLAC(track+.cue), lossless]
  • (1994) Joy / Grand Collection (EuroDisco) [FLAC (image+.cue) lossless]
  • (2010) Ласковый Май (Солист Юра Шатунов) / Оригинальные записи 1988-1989 (2 ...
  • (2010) ST1M / Октябрь (Rap) [APE(image+.cue), lossless]
  • (2011) Within Temptation / The Unforgiving (Symphonic Gothic Metal) [FLAC ( ...
  • (2011) Blues Cousins / KGB Blues (Blues Rock) [FLAC (image+.cue), lossless] ...
  • (2011) ДДТ / Иначе/P.S. (Русский Рок) [FLAC(image+.cue), lossless]
  • (2012) The Blues Overdrive / The Blues Overdrive (Blues-Rock) [FLAC (image+ ...
  • (2012) Serebro / Mama Lover (Монолит) (Pop) [FLAC (image+.cue), lossless]
  • (1993) Любовь Успенская / Любимый (шансон) [APE (image+.cue), lossless]
  • (Дискография, 2005-2008) Ёлка (R&B, Reggae, Pop) [APE (image+.cue); FLAC (i ...
  • (1995) Юрий Шатунов / Ты помнишь... (Pop) [FLAC(image+.cue), lossless]
  • (1995) Yaki-Da / Pride (Pop, Eurodance) [FLAC (image+.сue), lossless]
  • (2004) Ex-Сектор Газа / Огненный рай (Punk-Rock) [FLAC (image+.cue), lossle ...
  • (2008) Студия 80 / Придуманный Мир (Pop) [FLAC (image+.cue), lossless]
  • (2012) Иван Кучин / Золотые хиты (Chanson) [FLAC (image+.cue), lossless]
  • (2012) Иван Кучин / Небесные цветы (Chanson) [FLAC (image+.cue), lossless]
  • (2012) Русский стилль / Ты позови меня... (Pop) [MP3, 320/CBR]
  • (2012) Денис Майданов / Лучшие песни (Серия "Музыка на почте") (Шансон) [FL ...
  • Информация
    Посетители, находящиеся в группе Гости, не могут оставлять комментарии к данной публикации.