вход на сайт

Имя пользователя :
Пароль :

Восстановление пароля Регистрация
(2010) Татьяна Буланова / Романсы (Pop) [FLAC (image+.cue), lossless]
Рейтинг:
(голосов: 1)



[img]{THEME}/images/logopost.png[/img]




Исполнитель:Татьяна Буланова
Страна:Россия
Альбом:Романсы
Тип альбома:Студийный
Год выпуска:2010
Жанр:Pop
Формат: FLAC (image+.сue)
Битрейт: lossless
Продолжительность: 00:32:35

Wikipedia|YouTube|Facebook|Official page

Tреклист:
01. Он уехал - 02:14
02. Отцвели хризантемы - 03:02
03. По диким степям Забайкалья - 03:07
04. Только раз - 02:52
05. Скажите, почему? - 03:18
06. Белой акации гроздья душистые - 03:21
07. Если можешь, прости - 03:46
08. Раскинулось море широко - 03:13
09. Руки - 03:29
10. Гори, гори моя звезда - 03:50

Лог EAC ▼Text
Exact Audio Copy V0.99 prebeta 5 from 4. May 2009
EAC extraction logfile from 3. December 2010, 3:58
Татьяна Буланова / Романсы
Used drive : PIONEER DVD-RW DVR-212 Adapter: 8 ID: 0
Read mode : Secure
Utilize accurate stream : Yes
Defeat audio cache : Yes
Make use of C2 pointers : No
Read offset correction : 48
Overread into Lead-In and Lead-Out : No
Fill up missing offset samples with silence : Yes
Delete leading and trailing silent blocks : No
Null samples used in CRC calculations : Yes
Used interface : Installed external ASPI interface
Used output format : Internal WAV Routines
Sample format : 44.100 Hz; 16 Bit; Stereo
TOC of the extracted CD
Track | Start | Length | Start sector | End sector
---------------------------------------------------------
1 | 0:00.00 | 2:16.66 | 0 | 10265
2 | 2:16.66 | 3:04.49 | 10266 | 24114
3 | 5:21.40 | 3:09.49 | 24115 | 38338
4 | 8:31.14 | 2:54.14 | 38339 | 51402
5 | 11:25.28 | 3:20.00 | 51403 | 66402
6 | 14:45.28 | 3:23.48 | 66403 | 81675
7 | 18:09.01 | 3:48.46 | 81676 | 98821
8 | 21:57.47 | 3:15.64 | 98822 | 113510
9 | 25:13.36 | 3:31.01 | 113511 | 129336
10 | 28:44.37 | 3:50.70 | 129337 | 146656
Range status and errors
Selected range
Filename J:MP3Татьяна Буланова (FLAC)Татьяна Буланова - Романсы (2010) FLACТатьяна Буланова - Романсы.wav
Peak level 97.7 %
Range quality 100.0 %
Test CRC 734041CC
Copy CRC 734041CC
Copy OK
No errors occurred
AccurateRip summary
Track 1 not present in database
Track 2 not present in database
Track 3 not present in database
Track 4 not present in database
Track 5 not present in database
Track 6 not present in database
Track 7 not present in database
Track 8 not present in database
Track 9 not present in database
Track 10 not present in database
None of the tracks are present in the AccurateRip d
b096c9cc8a225b58554931d11f315446761f3cd6(2010) Татьяна Буланова / Романсы (Pop) [FLAC (image+.cue), lossless] (2010) Татьяна Буланова / Романсы (Pop) [FLAC (image+.cue), lossless] " />

Аплоадер: Админ, дата: 11-05-2012, 15:10, торрент скачан: 359 раз

Понравилась раздача? Посмотрите эти:
  • (2013) Мумий Тролль / SOS Матросу - 2013, (Rock) [FLAC (image+.cue), lossle ...
  • (2011) Mylene Farmer/ Bleu Noir (CDS + CDM) (Pop) [APE (image+.cue) lossles ...
  • (2011) Scar Symmetry / The Unseen Empire (Melodic Death Metal) [FLAC (image ...
  • (2011) Sepultura / Kairos (Thrash Metal) [Flac(image+.cue)lossless]
  • (2012) Linkin Park / Burn It Down (Alternative Rock) (Single) [FLAC (image+ ...
  • (Дискография, 1987-1999) Obliveon (Technical Thrash Metal) [FLAC (image+.cu ...
  • (2011 15CD Box Set Digitally Remaster) Rush - Sectors (Rock, Progressive R ...
  • (2009) Miley Cyrus / The Time of Our Lives (Pop) [FLAC (tracks+.cue), lossl ...
  • (2011) VA / Танцевальный Рай 27 (Pop) [FLAC (image+.cue), lossless]
  • (2011) Linkin Park / Iridescent (Alternative Rock) [FLAC(image+.cue), lossl ...
  • (2011) JORN / Live In Black (Heavy/Progressive Metal ) [FLAC (image+.cue), ...
  • (2011) Rammstein / Mein Land (Neue Deutsche Harte, Industrial, Tanz-Metal) ...
  • (2011) Adriano Celentano / Facciamo Finta Che Sia Vero (POP) [FLAC (image+. ...
  • (2011) Сурганова & Оркестр / Увидимся скоро (Rock) [FLAC (image+.cue), loss ...
  • (2011) This Will Destroy You / Tunnel Blanket (Post Rock) [FLAC (tracks+.cu ...
  • (2011) Metallica / Beyond Magnetic (Thrash Metal) [FLAC (image+.cue), lossl ...
  • (2012) Adrenaline Mob / Omerta (Heavy Metal/Progressive/Nu-Metal) [FLAC (im ...
  • (2012) Crippled Black Phoenix / (Mankind) The Crafty Ape (Alternative/Indie ...
  • (2011) Lou Reed & Metallica / Lulu (Heavy Metal, Hard Rock) [FLAC (image+.c ...
  • (2010) Punish My Heaven / First Punishment (Melodic Death Metal, Metalcore) ...
  • Информация
    Посетители, находящиеся в группе Гости, не могут оставлять комментарии к данной публикации.