вход на сайт

Имя пользователя :
Пароль :

Восстановление пароля Регистрация
(2010) Uma2rmaH / 1825 The Best (Pop-Rock) [FLAC (image+.cue), lossless]
Рейтинг:
(голосов: 1)



[img]{THEME}/images/logopost.png[/img]





Исполнитель:Uma2rmaH
Страна: Россия
Альбом:1825 The Best
Тип альбома:Compilation
Год выпуска:2010
Жанр:Pop-Rock
Формат: FLAC (image+.сue)
Битрейт: lossless
Издатель (лейбл): Velvet Music/МИСТЕРИЯ+
Продолжительность: 00:59:19

Описание:
Uma2rmaH (первое название «Уматурман») — известная российская группа, исполняющая поп-рок.
Изначально состояла из братьев Кристовских — Сергея и Владимира, которые назвали группу в честь любимой актрисы Умы Турман. В дальнейшем для концертов были наняты дополнительные музыканты: Алексей Эрнст — клавишные, Сергей Солодкин — барабаны, Алексей Кожаков и Юрий Терлетский — соло-гитара, Алексей Каплун — клавишные.

Wikipedia|YouTube|last.fm|Official page

Tреклист:
01. Прасковья - 02:54
02. Ночной дозор - 03:48
03. Ума Турман - 04:12
04. Тайд - 04:10
05. Ты ушла - 03:35
06. Кино - 03:30
07. Скажи - 04:11
08. Ты далеко - 04:14
09. Теннис - 03:41
10. Не позвонишь feat. Patricia Kaas - 03:17
11. В городе лето - 03:05
12. Папины дочки - 03:03
13. Куда приводят мечты - 04:29
14. Дайте сигарету - 03:34
15. Любовь на сноуборде feat. Людмила Гурченко - 02:27
16. Проститься - 05:01


Лог EAC ▼Text
Exact Audio Copy V1.0 beta 1 from 15. November 2010
EAC extraction logfile from 10. December 2010, 13:41
Uma2rmaH / 1825
Used drive : PIONEER DVD-RW DVR-212 Adapter: 8 ID: 0
Read mode : Secure
Utilize accurate stream : Yes
Defeat audio cache : Yes
Make use of C2 pointers : No
Read offset correction : 48
Overread into Lead-In and Lead-Out : No
Fill up missing offset samples with silence : Yes
Delete leading and trailing silent blocks : No
Null samples used in CRC calculations : Yes
Used interface : Installed external ASPI interface
Used output format : Internal WAV Routines
Sample format : 44.100 Hz; 16 Bit; Stereo
TOC of the extracted CD
Track | Start | Length | Start sector | End sector
---------------------------------------------------------
1 | 0:00.00 | 2:54.44 | 0 | 13093
2 | 2:54.44 | 3:48.37 | 13094 | 30230
3 | 6:43.06 | 4:12.57 | 30231 | 49187
4 | 10:55.63 | 4:10.22 | 49188 | 67959
5 | 15:06.10 | 3:35.40 | 67960 | 84124
6 | 18:41.50 | 3:30.74 | 84125 | 99948
7 | 22:12.49 | 4:11.46 | 99949 | 118819
8 | 26:24.20 | 4:14.06 | 118820 | 137875
9 | 30:38.26 | 3:41.27 | 137876 | 154477
10 | 34:19.53 | 3:17.32 | 154478 | 169284
11 | 37:37.10 | 3:05.45 | 169285 | 183204
12 | 40:42.55 | 3:03.22 | 183205 | 196951
13 | 43:46.02 | 4:29.25 | 196952 &nbs
384d4078d16e02139ff1ef321595d31a36c6e238(2010) Uma2rmaH / 1825 The Best (Pop-Rock) [FLAC (image+.cue), lossless] (2010) Uma2rmaH / 1825 The Best (Pop-Rock) [FLAC (image+.cue), lossless] " />

Аплоадер: Админ, дата: 7-05-2012, 18:07, торрент скачан: 359 раз

Понравилась раздача? Посмотрите эти:
  • (1996) George Michael / Older (1st Press Japan) (Electronic, Pop/Rock) [FLA ...
  • (2013) Мумий Тролль / SOS Матросу - 2013, (Rock) [FLAC (image+.cue), lossle ...
  • (Дискография) Уматурман / Uma2rman (Pop/Rock) [MP3, 128 - 320/CBR]
  • (2010)Scorpions/Sting In The Tail [FLAC (tracks+cue), lossless]
  • (1989) Kaoma / Lambada (lambada / latin / ethnic) [FLAC (image+.cue), lossl ...
  • (2010) Сергей Трофимов (Трофим) / Всё не важно (Шансон) [FLAC(image+.cue), ...
  • (2010) Ассаи / Лифт (Rap) [FLAC(image+.cue), lossless]
  • (2010) Алиса / Ъ (The Hard Sign) (Hard Rock) [WavPack (iso.wv (image+.cue)) ...
  • (2007) Константин Никольский / Иллюзии (Rock) [APE (image + .cue), lossless ...
  • (2010) Zdob si Zdub / Белое вино / Красное вино (folk rock, folk punk, hard ...
  • (2008) Юрий Наумов / Рок как будто Блюз (Blues) [FLAC (Image+.cue), lossles ...
  • (2009) D-Man 55 / 7.62 Б-30 (Rap) [FLAC (image+.cue) lossless]
  • (2010) 2Pac / Greatest Hits (Rap & Hip Hop) [APE (image+.cue), lossless]
  • (2012) Сергей Васюта и Сладкий Сон / На белом покрывале января... (Pop) [Fl ...
  • (2011 15CD Box Set Digitally Remaster) Rush - Sectors (Rock, Progressive R ...
  • (1993) Крис Кельми / Greatest Hits (Pop-Rock) [FLAC (image+.cue), lossless] ...
  • (2011) Yanni / Truth Of Touch (New Age) [FLAC (image+ .cue),lossless]
  • ( 2000-2006) PLAZMA / 3 альбома (Pop) [Flac (image+.cue), lossless]
  • (2011) Стас Михайлов / Только ты (Шансон) [Flac(image+.cue)Lossless]
  • (2009) Чиж & Co / Лучшее. Золотая коллекция (Rock) [FLAC (image+.cue), loss ...
  • (2010) БИ-2 / БИ-2 и Симфонический Оркестр МВД России (Подарочное издание, ...
  • (2012) Fox / 2012 (Melodic Hard Rock) [FLAC (image +.cue), lossless]
  • (2010) Татьяна Буланова / Романсы (Pop) [FLAC (image+.cue), lossless]
  • (2011) Lou Reed & Metallica / Lulu (Heavy Metal, Hard Rock) [FLAC (image+.c ...
  • (2012) Muse / The 2nd Law (Alternative Rock, Progressive Rock) [FLAC (image ...
  • Информация
    Посетители, находящиеся в группе Гости, не могут оставлять комментарии к данной публикации.