вход на сайт

Имя пользователя :
Пароль :

Восстановление пароля Регистрация
(1995) Yaki-Da / Pride (Pop, Eurodance) [FLAC (image+.сue), lossless]
Рейтинг:
(голосов: 1)



[img]{THEME}/images/logopost.png[/img]



Исполнитель: Yaki-Da
Альбом: Pride
Страна: Швеция
Тип альбома: Студийный
Год выпуска: 1995
Жанр: Pop, Eurodance
Формат: FLAC (image+.сue)
Битрейт: lossless
Лог-файл: Присутствует
Продолжительность: 00:45:43

Tреклист:
01. Just A Dream (03:20)
02. I Saw You Dancing (03:50)
03. Pride Of Africa (03:37)
04. Show Me Love (03:29)
05. Teaser On The Catwalk (03:37)
06. Another Better World (03:46)
07. Mejor Maqana (03:26)
08. Deep In The Jungle (04:13)
09. Now I Want Love (04:05)
10. Pride Of Africa (Remix) (04:36)
11. Show Me Love (Acoustic Version) (03:26)
12. Rescue Me Tonight (04:13)

Отчёт EAC ▼Exact Audio Copy V1.0 beta 1 from 15. November 2010

Отчёт EAC об извлечении, выполненном 24. февраля 2011, 18:44

Yaki-Da / Pride (Japan)

Дисковод: PIONEER DVD-RWDVR-218L Adapter: 1ID: 0

Режим чтения : Достоверность
Использование точного потока : Да
Отключение кэша аудио: Да
Использование указателей C2: Нет

Коррекция смещения при чтении : 6
Способность читать области Lead-in и Lead-out : Нет
Заполнение пропущенных сэмплов тишиной: Да
Удаление блоков с тишиной в начале и конце: Нет
При вычислениях CRC использовались нулевые сэмплы : Да
Интерфейс : Встроенный Win32-интерфейс для Win NT/2000

Выходной формат : Внутренние WAV-операции
Формат сэмплов: 44.100 Гц; 16 бит; стерео


TOC извлечённого CD

Трек | Старт| Длительность | Начальный сектор | Конечный сектор
---------------------------------------------------------------------
1|0:00.37 |3:20.73 |37|15109
2|3:21.35 |3:50.02 | 15110|32361
3|7:11.37 |3:37.30 | 32362|48666
4| 10:48.67 |3:29.20 | 48667|64361
5| 14:18.12 |3:37.38 | 64362|80674
6| 17:55.50 |3:46.52 | 80675|97676
7| 21:42.27 |&n
581453fd0f52ed3e41a74a2525a88c623a6c5262(1995) Yaki-Da / Pride (Pop, Eurodance) [FLAC (image+.сue), lossless] (1995) Yaki-Da / Pride (Pop, Eurodance) [FLAC (image+.сue), lossless] " />

Аплоадер: Админ, дата: 1-05-2012, 15:24, торрент скачан: 359 раз

Понравилась раздача? Посмотрите эти:
  • (2000) Lenny Kravitz / Greatest Hits (Rock, Funk) [FLAC (image+.cue), lossl ...
  • (1993) Coverdale & Page / Coverdale & Page (EMI Holland)(Hard Rock) [FLAC ( ...
  • (2002) a-ha / Lifelines (Alternative Rock, Synth-pop ) [FLAC (image + .cue ...
  • (1995) Corona / The Rhythm Of The Night (Japan) (Eurodance) [FLAC (image+. ...
  • (2012) Григорий Лепс / Полный вперёд (Шансон) [FLAC (image+.cue), Lossless ...
  • (дискография, 1983-2008) MADONNA (pop / dance) [WavPack (image+.cue) lossle ...
  • (1994) Joy / Grand Collection (EuroDisco) [FLAC (image+.cue) lossless]
  • (1999) Paul Mauriat / Diamond Collections (Instrumental,Easy Listening) [FL ...
  • (1988) James Last / Romantic Love Songs (Instrumental) [FLAC (image+.cue) l ...
  • (2006) Батырхан Шукенов/ Отан Ана (Pop) [FLAC (image+.cue) lossless]
  • (2010) Батыр / Осторожно, милая девушка! (Pop) [FLAC (image+ cue)]
  • (1998) Pharao / The Return (Eurodance) [APE (image+.cue)]
  • (1985) BABYS GANG / Challenger (Pop,Italo Disco) [APE(image+.cue)lossless] ...
  • (2011) Within Temptation / The Unforgiving (Symphonic Gothic Metal) [FLAC ( ...
  • (2004) Genesis / Platinum Collection (Art Rock) [FLAC (image+.cue), lossles ...
  • (2011) Blues Cousins / KGB Blues (Blues Rock) [FLAC (image+.cue), lossless] ...
  • (1995) YAKI-DA / PRIDE (Pop) [MP3 320/CBR]
  • ( 2001) Воскресение / Звездная коллекция (Rock) [FLAC (image+.cue) lossless ...
  • (2001) Катя Огонёк / Дорожный роман (Шансон) [FLAC (image+.cue)]
  • (2010) Lara Fabian / The Best of (2CD Limited Edition) (Pop) [Flac(image+.c ...
  • (1995) Юрий Шатунов / Ты помнишь... (Pop) [FLAC(image+.cue), lossless]
  • (1988) Fausto Papetti / Grand Collection (POP, Jazz) [FLAC (image+.cue), lo ...
  • (2000) Парк Горького (Gorky Park) / The Best (Glam Metal/Hard Rock) [FLAC ...
  • (2004) Ex-Сектор Газа / Огненный рай (Punk-Rock) [FLAC (image+.cue), lossle ...
  • (2008) Студия 80 / Придуманный Мир (Pop) [FLAC (image+.cue), lossless]
  • Информация
    Посетители, находящиеся в группе Гости, не могут оставлять комментарии к данной публикации.