вход на сайт

Имя пользователя :
Пароль :

Восстановление пароля Регистрация
(Дискография, 2005-2010) Юлия Савичева (Pop) [FLAC (image+.cue), lossless]
Рейтинг:
(голосов: 1)



[img]{THEME}/images/logopost.png[/img]




Дискография
Исполнитель:Юлия Савичева
Страна: Россия
Жанр:Pop
Формат: FLAC (image+.cue)
Битрейт: lossless
Продолжительность: 04:35:19

Биография:


Юлия Савичева родилась 14 февраля 1987 года в семье музыкантов. Мама, Светлана Анатольевна Савичева закончила музыкальное училище по классу фортепиано и двенадцать лет преподавала в музыкальной школе. С 5 лет Юля выступала солисткой в хореографическом коллективе «Светлячок». Её первое выступление состоялось в 4 года, когда она вышла в Кургане на сцену вместе с рок-группой «Конвой» Макса Фадеева в которой барабанщиком работал ее отец Станислав Борисович Савичев.



Wikipedia|YouTube|Facebook|Official page

Студийные:
2005 - Высоко (FLAC (image+.cue)) ▼

Продолжительность: 43:25

Tреклист:
.:01:.Высоко |04:52|
.:02:.Корабли |04:07|
.:03:.Отпусти меня |03:26|
.:04:.Стоп |03:47|
.:05:.Прошай, моя любовь |04:41|
.:06:.Пока |03:37|
.:07:.Все для тебя |03:37|
.:08:.Бежать, лететь |04:10|
.:09:.Прости за любовь |04:06|
.:10:.Я с тобой |03:52|
.:11:.Believe me |02:45|

Лог создания рипа ▼Text
Exact Audio Copy V1.0 beta 1 from 15. November 2010
EAC extraction logfile from 5. March 2011, 4:19
Юлия Савичева / Высоко
Used drive : TEAC CD-W58E Adapter: 4 ID: 1
Read mode : Secure
Utilize accurate stream : Yes
Defeat audio cache : Yes
Make use of C2 pointers : No
Read offset correction : 685
Overread into Lead-In and Lead-Out : No
Fill up missing offset samples with silence : Yes
Delete leading and trailing silent blocks : No
Null samples used in CRC calculations : Yes
Used interface : Installed external ASPI interface
Used output format : Internal WAV Routines
Sample format : 44.100 Hz; 16 Bit; Stereo
TOC of the extracted CD
Track | Start | Length | Start sector | End sector
---------------------------------------------------------
1 | 0:00.00 | 4:54.40 | 0 | 22089
2 | 4:54.40 | 4:09.12 | 22090 | 40776
3 | 9:03.52 | 3:28.65 | 40777 | 56441
4 | 12:32.42 | 3:49.02 | 56442 | 73618
5 | 16:21.44 | 4:43.47 | 73619 | 94890
6 | 21:05.16 | 3:39.54 | 94891 | 111369
7 | 24:44.70 | 3:39.51 | 111370 | 127845
8 | 28:24.46 | 4:12.04 | 127846 | 146749
9 | 32:36.50 | 4:08.68 | 146750 | 165417
10 | 36:45.43 | 3:53.74 | 165418 | 182966
11 | 40:39.42 | 2:45.33 | 182967 | 195374
Range status and errors
Selected range
Filename J:MP3Юлию Савичева (FLAC)2005 - ВысокоЮлия Савичева - Высоко.wav
Peak level 100.0 %
Extraction speed 0.2 X
Range quality 100.0 %
Test CRC D8F35E53
ccddd2f5b040d904867bee551eb6ebb6659af78e(Дискография, 2005-2010) Юлия Савичева (Pop) [FLAC (image+.cue), lossless] (Дискография, 2005-2010) Юлия Савичева (Pop) [FLAC (image+.cue), lossless] " />

Аплоадер: Админ, дата: 4-03-2012, 20:18, торрент скачан: 359 раз

Понравилась раздача? Посмотрите эти:
  • (2013) Мумий Тролль / SOS Матросу - 2013, (Rock) [FLAC (image+.cue), lossle ...
  • (1989) Kaoma / Lambada (lambada / latin / ethnic) [FLAC (image+.cue), lossl ...
  • (2010) Сергей Трофимов (Трофим) / Всё не важно (Шансон) [FLAC(image+.cue), ...
  • (2010) Ассаи / Лифт (Rap) [FLAC(image+.cue), lossless]
  • (2011) Mylene Farmer/ Bleu Noir (CDS + CDM) (Pop) [APE (image+.cue) lossles ...
  • (2008) Karunesh /Enlightenment (New Age) [FLAC (image+.cue), lossless]
  • (2008) Юрий Наумов / Рок как будто Блюз (Blues) [FLAC (Image+.cue), lossles ...
  • (2011, 5CD Box set) Boney M / Original Album Classics (Reggae, Disco, R&B, ...
  • (Дискография, 1988-2011) Kingdom Come (Hard&Heavy,Glam Metal) [FLAC (image+ ...
  • (2012) Kreator / Phantom Antichrist (Thrash Metal) [FLAC (image+.cue), loss ...
  • (Дискография, 1987-1999) Obliveon (Technical Thrash Metal) [FLAC (image+.cu ...
  • (2011 15CD Box Set Digitally Remaster) Rush - Sectors (Rock, Progressive R ...
  • (2012, сборник) VA | Горячая 20. Осень-Зима 2012-13 (Pop) [FLAC (image+.cue ...
  • (2011) Yanni / Truth Of Touch (New Age) [FLAC (image+ .cue),lossless]
  • (2011) Linkin Park / Iridescent (Alternative Rock) [FLAC(image+.cue), lossl ...
  • (2011) Стас Михайлов / Только ты (Шансон) [Flac(image+.cue)Lossless]
  • (2011) JORN / Live In Black (Heavy/Progressive Metal ) [FLAC (image+.cue), ...
  • (2011) Adriano Celentano / Facciamo Finta Che Sia Vero (POP) [FLAC (image+. ...
  • (2011) Сурганова & Оркестр / Увидимся скоро (Rock) [FLAC (image+.cue), loss ...
  • (2011) Metallica / Beyond Magnetic (Thrash Metal) [FLAC (image+.cue), lossl ...
  • (2012) Adrenaline Mob / Omerta (Heavy Metal/Progressive/Nu-Metal) [FLAC (im ...
  • (2012) Fox / 2012 (Melodic Hard Rock) [FLAC (image +.cue), lossless]
  • (2010) Татьяна Буланова / Романсы (Pop) [FLAC (image+.cue), lossless]
  • (2012) Game Over / For Humanity (Thrash Metal) [FLAC (image+.cue), lossless ...
  • (2011) Lou Reed & Metallica / Lulu (Heavy Metal, Hard Rock) [FLAC (image+.c ...
  • Информация
    Посетители, находящиеся в группе Гости, не могут оставлять комментарии к данной публикации.