вход на сайт

Имя пользователя :
Пароль :

Восстановление пароля Регистрация
(Сборник, 1994) Мираж / 2 альбома (Pop) [APE (image+.cue), lossless]
Рейтинг:
(голосов: 1)



[img]{THEME}/images/logopost.png[/img]



Дискография
Исполнитель: Мираж
Страна: Россия
Жанр: Pop
Формат: APE (image+.сue)
Битрейт: lossless
Продолжительность: 01:25:14

Об исполнителе: Мираж - легендарная советская, а затем российская музыкальная группа, работающая, в основном, в стиле евродиско. Проект создан в 1985-87 годах композитором и клавишником Адреем Литягиным.

Звёзды нас ждут — дебютный музыкальный альбом группы «Мираж». Был записан в конце 1986 года и выпущен на магнитной кассете в 1987 году. Издан на компакт-диске в 1994 году претерпев некоторые изменения: изменен порядок песен, материал был пересведен. Режиссёр мастеринга переиздания — Игорь Бабенко.
Альбом записан двумя вокалистками: постоянной (на момент записи) солисткой коллектива Наталией Гулькиной и сессионной (опять же на момент записи) вокалисткой Маргаритой Суханкиной, которая приняла участие в записи, однако не выходила на сцену, так как планировала оперную карьеру и не хотела быть замечена в поп-проекте. Вторая солистка коллектива Светлана Разина не принимала участия в записи, однако выступала на сцене.

Снова вместе — второй номерной альбом группы «Мираж». Был записан летом 1988 года на студии "Звук" по заказу Андрея Лукинова и Игоря Васильева и выпущен на магнитной кассете в 1989 году. На обложке магнитоальбома были изображены гитарист группы Алексей Горбашов и сценическое лицо группы в 1988—1990 годах — Татьяна Овсиенко. Издан на компакт-диске в 1994 году претерпев некоторые изменения: изменен порядок песен, материал был пересведен, по техническим причинам заменены партии бэк-вокала. Режиссёр мастеринга переиздания — Игорь Бабенко. Изменилась в переиздании и обложка: на ней не стали размещать ничьи фотографии.

Альбом записан Маргаритой Суханкиной. Партии бэк-вокала в магнитоальбомном издании исполняла также Маргарита Суханкина, для переиздания на диске их исполнила Екатерина Болдышева.


Альбомы:▼
1994 - Звёзды нас ждут (APE/image+.cue)▼

Продолжительность: 00:40:16

Tреклист:
1. Солнечное лето — 4:30
2. Звёзды нас ждут — 5:01
3. Безумный мир — 3:49
4. Я не хочу — 2:59
5. Около полуночи — 5:13
6. Видео — 4:04
7. Эта ночь — 4:27
8. Электричество — 4:13
9. Волшебный мир — 6:11
Лог создания рипа ▼Exact Audio Copy V0.99 prebeta 4 from 23. January 2008

Отчёт EAC об извлечении, выполненном 22. сентября 2011, 17:09

Мираж / Звёзды Нас Ждут

Дисковод: Optiarc DVD RW AD-5200A Adapter: 0 ID: 0

Режим чтения : Достоверность
Использование точного потока : Да
Отключение кэша аудио : Да
Использование указателей C2 : Нет

Коррекция смещения при чтении : 48
Способность читать области Lead-in и Lead-out : Нет
Заполнение пропущенных сэмплов тишиной : Да
Удаление блоков с тишиной в начале и конце : Нет
При вычислениях CRC использовались нулевые сэмплы : Да
Интерфейс : Встроенный Win32-интерфейс для Win NT/2000

Выходной формат : Внутренние WAV-операции
Формат сэмплов : 44.100 Гц; 16 бит; стерео

TOC извлечённого CD

Трек | Старт | Длительность | Начальный сектор | Конечный сектор
---------------------------------------------------------------------
1 | 0:00.05 | 4:30.20 | 5 | 20274
2 | 4:30.25 | 5:01.10 | 20275 | 42859
3 | 9:31.35 | 3:49.15 | 42860 | 60049
4 | 13:20.50 | 2:59.18 | 60050 | 73492
5 | 16:19.68 | 5:13.20 | 73493 | 96987
6 | 21:33.13 | 4:03.62 | 96988 | 115274
7 | 25:37.00 | 4:26.43 | 115275 | 135267
8 | 30:03.43 | 4:13.17 | 135268 | 154259
9 | 34:16.60 | 6:11.28 | 154260 | 182112

Характеристики диапазона извлечения и сообщения об ошибках

Выбранный диапазон

Имя файла F:LosslessМираж - Звёзды Нас Ждут.wav

Пиковый уровень 96.2 %
Качество диапазона 100.0 %
CRC теста 794043AB
CRC копии 794043AB
Копирование... OK

Ошибок не произошло

Конец отчёта



1994 - Снова вместе (APE/image+.cue)▼

Продолжительность: 00:44:58

Tреклист:
1. Музыка нас связала — 4:29
2. Наступает ночь — 4
c575975bc272080d1ed7ecc1fa4349de4d0bbd05(Сборник, 1994) Мираж / 2 альбома (Pop) [APE (image+.cue), lossless] (Сборник, 1994) Мираж / 2 альбома (Pop) [APE (image+.cue), lossless] " />

Аплоадер: Админ, дата: 7-01-2012, 01:36, торрент скачан: 359 раз

Понравилась раздача? Посмотрите эти:
  • (Дискография 1987-2009) Мираж (Pop) [MP3, 320/CBR]
  • (2000) Tic Tac Toe / Ist der Ruf erst ruiniert... (Rap,Hip-hop) [Lossless, ...
  • (1994) Joy / Grand Collection (EuroDisco) [FLAC (image+.cue) lossless]
  • (2010) Ласковый Май (Солист Юра Шатунов) / Оригинальные записи 1988-1989 (2 ...
  • (2010) ST1M / Октябрь (Rap) [APE(image+.cue), lossless]
  • (2006) Батырхан Шукенов/ Отан Ана (Pop) [FLAC (image+.cue) lossless]
  • (1985) BABYS GANG / Challenger (Pop,Italo Disco) [APE(image+.cue)lossless] ...
  • (2011) Within Temptation / The Unforgiving (Symphonic Gothic Metal) [FLAC ( ...
  • (2011) АлисА / 20.12 (Русский Рок) [WavPack (image+.cue), lossless]
  • (2011) Blues Cousins / KGB Blues (Blues Rock) [FLAC (image+.cue), lossless] ...
  • (2011) АукцЫон / Юла (Rock) [APE (image+.cue), lossless]
  • (2003) THE BLACK EYED PEAS / Elephunk (RnB) [Ape (image+.cue), lossless]
  • (2009) Rihanna / Rated R (R`n`B) [APE (image+.cue)]
  • (1993) Любовь Успенская / Любимый (шансон) [APE (image+.cue), lossless]
  • (2009) Челси / Точка возврата (Pop) [APE (image+.cue), lossless]
  • (2011) N1NT3NDO / N1NT3NDO (Rap) [APE (image+.сue), lossless]
  • (1995) Юрий Шатунов / Ты помнишь... (Pop) [FLAC(image+.cue), lossless]
  • (1987) Мираж / Звезды нас ждут (Pop) [FLAC (image+.cue), lossless]
  • (2004) Ex-Сектор Газа / Огненный рай (Punk-Rock) [FLAC (image+.cue), lossle ...
  • (2008) Студия 80 / Придуманный Мир (Pop) [FLAC (image+.cue), lossless]
  • Информация
    Посетители, находящиеся в группе Гости, не могут оставлять комментарии к данной публикации.