вход на сайт

Имя пользователя :
Пароль :

Восстановление пароля Регистрация
(2011, сборник) VA / Новогодняя тридцатка 2012 (Pop, Chanson) [FLAC (image+.cue), lossless]
Рейтинг:
(голосов: 1)



[img]{THEME}/images/logopost.png[/img]



С.б.о.р.н.и.к
Исполнитель: VA
Название сборника: Новогодняя тридцатка 2012
Год выпуска: 2011
Жанр: Pop, Chanson (Шансон)
Формат: FLAC(image+.сue)
Битрейт: lossless
Продолжительность: 01:57:25

Часть 1 (FLAC | image+.cue) ▼

Продолжительность:00:56:32

01 ... С. Михайлов - С. Михайлов - Спаси меня ... 04:27
02 ... Л. Агутин и А. Варум - Л. Агутин и А. Варум - Как не думать о тебе ... 03:59
03 ... В. Казаченко - В. Казаченко - Сто тысяч ДА ... 03:31
04 ... Е. Ваенга - Е. Ваенга - Не забывай ... 04:15
05 ... А. Шевченко - А. Шевченко - Больше ничего ... 04:32
06 ... Витас - Витас - Я скучаю по тебе ... 03:05
07 ... А. Свиридова - А. Свиридова - Не дам скучать ... 03:55
08 ... С. Филиппов - С. Филиппов - Утонем ... 03:46
09 ... Республика - Республика - Холода ... 04:00
10 ... Гости из будущего - Гости из будущего - За звездой (Live 2007) ... 03:11
11 ... Ранетки - Ранетки - Ревность ... 03:27
12 ... Сценакардия - Сценакардия - Времена года ... 02:43
13 ... Мираж - Мираж - Сказка ... 03:36
14 ... А. Варум - А. Варум - Давай забудем ... 03:54
15 ... Фристайл - Фристайл - Догорает свеча (2009) ... 04:04
EAC log ▼TextExact Audio Copy V1.0 beta 3 from 29. August 2011
EAC extraction logfile from 1. December 2011, 22:46
Various / Новогодняя тридцатка 2012 - Часть 1
Used drive : PIONEER DVD-RW DVR-212 Adapter: 1 ID: 0
Read mode : Secure
Utilize accurate stream : Yes
Defeat audio cache : Yes
Make use of C2 pointers : No
Read offset correction : 48
Overread into Lead-In and Lead-Out : No
Fill up missing offset samples with silence : Yes
Delete leading and trailing silent blocks : No
Null samples used in CRC calculations : Yes
Used interface : Native Win32 interface for Win NT & 2000
Used output format : Internal WAV Routines
Sample format : 44.100 Hz; 16 Bit; Stereo
TOC of the extracted CD
Track | Start | Length | Start sector | End sector
---------------------------------------------------------
1 | 0:00.00 | 4:29.15 | 0 | 20189
2 | 4:29.15 | 4:01.43 | 20190 | 38307
3 | 8:30.58 | 3:33.05 | 38308 | 54287
4 | 12:03.63 | 4:17.06 | 54288 | 73568
5 | 16:20.69 | 4:34.70 | 73569 | 94188
6 | 20:55.64 | 3:07.62 | 94189 | 108275
7 | 24:03.51 | 3:57.17 | 108276 | 126067
8 | 28:00.68 | 3:48.38 | 126068 | 143205
9 | 31:49.31 | 4:02.13 | 143206 | 161368
10 | 35:51.44 | 3:13.61 | 161369 | 175904
11 | 39:05.30 | 3:29.14 | 175905 | 191593
12 | 42:34.44 | 2:45.35 | 191594 | 204003
13 | 45:20.04 | 3:38.54 | 204004 &
18f760ad0a9413beaf626357832eeed0e37e3f5b(2011, сборник) VA / Новогодняя тридцатка 2012 (Pop, Chanson) [FLAC (image+.cue), lossless] (2011, сборник) VA / Новогодняя тридцатка 2012 (Pop, Chanson) [FLAC (image+.cue), lossless] " />

Аплоадер: Админ, дата: 4-01-2012, 11:17, торрент скачан: 359 раз

Понравилась раздача? Посмотрите эти:
  • (2013) Мумий Тролль / SOS Матросу - 2013, (Rock) [FLAC (image+.cue), lossle ...
  • (2010) Ассаи / Лифт (Rap) [FLAC(image+.cue), lossless]
  • (2010) Zaz / Zaz (Nu jazz, Chanson, Soul) [FLAC (tracks+.cue), lossless]
  • (2011) The Prodigy / Worlds On Fire (Big Beat, Rave) [FLAC (image+.cue), lo ...
  • (2008) Юрий Наумов / Рок как будто Блюз (Blues) [FLAC (Image+.cue), lossles ...
  • (2009) D-Man 55 / 7.62 Б-30 (Rap) [FLAC (image+.cue) lossless]
  • (Сборник, 1976-1982) Rockets / 6 Альбомов (Electro Rock/Pop Rock/Space Rock ...
  • (2012) Сергей Васюта и Сладкий Сон / На белом покрывале января... (Pop) [Fl ...
  • (2012) Christina Aguilera / The Best (Unofficial) (Pop) [FLAC (image+.cue), ...
  • (Дискография, 2004-2011) Petra Berger (Classical Crossover) [FLAC (image+.c ...
  • (2012, сборник) VA | Горячая 20. Осень-Зима 2012-13 (Pop) [FLAC (image+.cue ...
  • (2012, Сборник) VA / Новогодняя тридцатка 2013 (Шансон) [FLAC (image+.cue), ...
  • (2011) Yanni / Truth Of Touch (New Age) [FLAC (image+ .cue),lossless]
  • (2011) Стас Михайлов / Только ты (Шансон) [Flac(image+.cue)Lossless]
  • (2009) Чиж & Co / Лучшее. Золотая коллекция (Rock) [FLAC (image+.cue), loss ...
  • (2009, сборник) VA / Республика Kazantip Z17 (Mixed by Эд Космонавт) (Tranc ...
  • (2011) Слот / F5 (Alternative Metal) [FLAC (image+.cue)lossless]
  • (2011) Слот / Break The Code (Alternative Metal) [FLAC (image+.cue)lossless ...
  • (2011, сборник) VA / Новогодняя тридцатка 2012 (Pop, Chanson) [Mp3, 320/CBR ...
  • (2011) Adriano Celentano / Facciamo Finta Che Sia Vero (POP) [FLAC (image+. ...
  • (2011) Metallica / Beyond Magnetic (Thrash Metal) [FLAC (image+.cue), lossl ...
  • (2012) Adrenaline Mob / Omerta (Heavy Metal/Progressive/Nu-Metal) [FLAC (im ...
  • (2012) Crippled Black Phoenix / (Mankind) The Crafty Ape (Alternative/Indie ...
  • (2011) Lou Reed & Metallica / Lulu (Heavy Metal, Hard Rock) [FLAC (image+.c ...
  • (2012) Сплин / Обман зрения (Rock) [FLAC (image+.cue), lossless]
  • Информация
    Посетители, находящиеся в группе Гости, не могут оставлять комментарии к данной публикации.