вход на сайт

Имя пользователя :
Пароль :

Восстановление пароля Регистрация
(1995) Юрий Шатунов / Ты помнишь... (Pop) [FLAC(image+.cue), lossless]
Рейтинг:
(голосов: 1)



[img]{THEME}/images/logopost.png[/img]



Юрий Шатунов - Ты помнишь...

Исполнитель: Юрий Шатунов
Альбом: Ты помнишь...
Страна: Россия
Тип альбома: Студийный
Год выпуска: 1995
Жанр: Pop
Формат: FLAC(image+.cue)
Битрейт: lossless
Продолжительность: 00:55:31

Tреклист:
01. Звездная ночь (04:14)
02. Клянусь (04:15)
03. Чужая боль (06:56)
04. Письмо (06:14)
05. Мама (05:58)
06. И упав на колени (04:12)
07. Старый дом (05:53)
08. Утренний снег (06:02)
09. Беглец (06:45)
10. Детский дом (04:35)

Лог EAC ▼TextExact Audio Copy V0.99 prebeta 5 from 4. May 2009

Отчёт EAC об извлечении, выполненном 14. апреля 2010, 19:05

Юрий Шатунов / Ты помнишь...

Дисковод: PIONEER DVD-RW DVR-212 Adapter: 8 ID: 0

Режим чтения : Достоверность
Использование точного потока : Да
Отключение кэша аудио : Да
Использование указателей C2 : Нет

Коррекция смещения при чтении : 48
Способность читать области Lead-in и Lead-out : Нет
Заполнение пропущенных сэмплов тишиной : Да
Удаление блоков с тишиной в начале и конце : Нет
При вычислениях CRC использовались нулевые сэмплы : Да
Интерфейс : Установленный внешний ASPI-интерфейс

Выходной формат : Внутренние WAV-операции
Формат сэмплов : 44.100 Гц; 16 бит; стерео

TOC извлечённого CD

Трек | Старт | Длительность | Начальный сектор | Конечный сектор
---------------------------------------------------------------------
1 | 0:00.33 | 4:17.20 | 33 | 19327
2 | 4:17.53 | 4:18.00 | 19328 | 38677
3 | 8:35.53 | 6:59.25 | 38678 | 70127
4 | 15:35.03 | 6:16.25 | 70128 | 98352
5 | 21:51.28 | 6:00.15 | 98353 | 125367
6 | 27:51.43 | 4:15.25 | 125368 | 144517
7 | 32:06.68 | 5:55.57 | 144518 | 171199
8 | 38:02.50 | 6:04.68 | 171200 | 198567
9 | 44:07.43 | 6:47.55 | 198568 | 229147
10 | 50:55.23 | 4:35.35 | 229148 | 249807

Характеристики диапазона извлечения и сообщения об ошибках

Выбранный диапазон

Имя файла B:MP 3Юрий Шатунов (FLAC)Юрий Шатунов - Ты помнишь... (1995)Юрий Шатунов - Ты помнишь.wav

Пиковый уровень 100.0 %
Качество диапазона 100.0 %
CRC теста 8983410A
CRC копии 8983410A
Копирование... OK

Ошибок не произошло

AccurateRip: сводка

Трек&
90c97776928e8cb6a6a89b1800737e3257094aae(1995) Юрий Шатунов / Ты помнишь... (Pop) [FLAC(image+.cue), lossless] (1995) Юрий Шатунов / Ты помнишь... (Pop) [FLAC(image+.cue), lossless] " />

Аплоадер: Админ, дата: 19-12-2011, 15:02, торрент скачан: 359 раз

Понравилась раздача? Посмотрите эти:
  • (2002) a-ha / Lifelines (Alternative Rock, Synth-pop ) [FLAC (image + .cue ...
  • (1995) Corona / The Rhythm Of The Night (Japan) (Eurodance) [FLAC (image+. ...
  • (2012) Григорий Лепс / Полный вперёд (Шансон) [FLAC (image+.cue), Lossless ...
  • (2009) НОЧНЫЕ СНАЙПЕРЫ — Южный полюс (русский рок, сингл) [FLAC (lossless), ...
  • (3 CD) Петлюра (Юрий Барабаш) (Шансон) [FLAC(image+.cue), lossless]
  • (1994) Joy / Grand Collection (EuroDisco) [FLAC (image+.cue) lossless]
  • (2010) Ласковый Май (Солист Юра Шатунов) / Оригинальные записи 1988-1989 (2 ...
  • (2006) Батырхан Шукенов/ Отан Ана (Pop) [FLAC (image+.cue) lossless]
  • (2011) Within Temptation / The Unforgiving (Symphonic Gothic Metal) [FLAC ( ...
  • (2011) АлисА / 20.12 (Русский Рок) [WavPack (image+.cue), lossless]
  • (2011) Blues Cousins / KGB Blues (Blues Rock) [FLAC (image+.cue), lossless] ...
  • (Дискография, 1986 - 1999) Crimson Glory (Progressive Heavy Metal) [FLAC (i ...
  • ( 2001) Воскресение / Звездная коллекция (Rock) [FLAC (image+.cue) lossless ...
  • (2009) Земфира / Z-Sides (Rock) [FLAC(image+.cue), lossless ]
  • (2010) Lara Fabian / The Best of (2CD Limited Edition) (Pop) [Flac(image+.c ...
  • (2006) Би-2 / Лучшие песни (Rock) [FLAC (image+.cue), lossless]
  • (1995) Steve Morse Band / Structural Damage (Instrumental Rock/Blues Rock/J ...
  • (1995) Yaki-Da / Pride (Pop, Eurodance) [FLAC (image+.сue), lossless]
  • (2008) Студия 80 / Придуманный Мир (Pop) [FLAC (image+.cue), lossless]
  • (2012) Юрий Шатунов / Я верю... (Pop) [FLAC (image+.cue), lossless]
  • Информация
    Посетители, находящиеся в группе Гости, не могут оставлять комментарии к данной публикации.