вход на сайт

Имя пользователя :
Пароль :

Восстановление пароля Регистрация
(Дискография, 2005-2008) Ёлка (R&B, Reggae, Pop) [APE (image+.cue); FLAC (image +.cue), lossless]
Рейтинг:
(голосов: 1)



[img]{THEME}/images/logopost.png[/img]




Дискография
Ёлка
Исполнитель: Ёлка
Жанр: R&B, Reggae, Pop
Формат: APE (image+.сue), FLAC (image+.cue)
Битрейт: lossless
Продолжительность: 08:15:45

Об исполнителе:
Елизаве́та Вальдема́ровна Иванцив (укр. Єлизавета Вальдемарівна Іванців, известная как Ёлка; 2 июля 1982, Ужгород, Украина) — украинская (русскоязычная) певица. Бывшая участница Ужгородской команды КВН «Палата № 6».

Wikipedia |YouTube | Facebook | Official page

Студийные:▼
2005 - Город Обмана (APE (image+.сue)) ▼
Продолжительность: 00:52:00

Tреклист:
[01:29] 01. Ёлка - Пыль
[03:41] 02. Ёлка - Город Обмана
[03:40] 03. Ёлка - Три Пути
[04:08] 04. Ёлка - Ненастоящая Любовь
[01:15] 05. Ёлка - Электропровода
[03:25] 06. Ёлка - I Want To Be A Movie Star
[03:57] 07. Ёлка - 31 Июня
[04:03] 08. Ёлка - Девочка В Пежо
[04:32] 09. Ёлка - Сука Любовь
[03:15] 10. Ёлка - Две Розы
[04:06] 11. Ёлка - Суета
[03:59] 12. Ёлка - Shake It
[04:08] 13. Ёлка - Хорошее Настроение
[02:34] 14. Ёлка - Две Розы (Acoustic Version)
[03:41] 15. Ёлка - Город Обмана (Remix)

Лог создания рипа ▼
Exact Audio Copy V0.99 prebeta 4 from 23.

January 2008
Отчёт EAC об извлечении, выполненном 7. июля 2010, 18:57
Ёлка / Город Обмана
Дисковод: ASUSDRW-1608P Adapter: 0ID: 0
Режим чтения : Достоверность
Использование точного потока : Да
Отключение кэша аудио: Да
Использование указателей C2: Нет
Коррекция смещения при чтении : 48
Способность читать области Lead-in и Lead-out : Нет
Заполнение пропущенных сэмплов тишиной: Да
Удаление блоков с тишиной в начале и конце: Нет
При вычислениях CRC использовались нулевые сэмплы : Да
Интерфейс : Установленный внешний

ASPI-интерфейс
Выходной формат : Внутренние WAV-операции
Формат сэмплов: 44.100 Гц; 16 бит; стерео
TOC извлечённого CD
Трек | Старт| Длительность | Начальный сектор | Конечный

сектор
---------------------------------------------------------------------
1|0:00.00 |1:29.06 | 0| 6680
2|1:29.06 |3:41.13 |6681|23268
3|5:10.19 |3:40.06 | 23269|39774
4|8:50.25 |4:08.57 | 39775|58431
5| 12:59.07 |1:15.69 | 58432|64125
6&n
72331e9dde39179ec808de5e573a1f2dd4f09db5(Дискография, 2005-2008) Ёлка (R&B, Reggae, Pop) [APE (image+.cue); FLAC (image +.cue), lossless] (Дискография, 2005-2008) Ёлка (R&B, Reggae, Pop) [APE (image+.cue); FLAC (image +.cue), lossless] " />

Аплоадер: Админ, дата: 12-11-2011, 03:11, торрент скачан: 359 раз

Понравилась раздача? Посмотрите эти:
  • Жара & Ёлка / Новый Мир [2013, Rap,Hip-Hop, WebRip]
  • Ёлка / Тело офигело [2013, Pop, WebRip]
  • (Дискография, 2005-2011) Ёлка (R&B, POP) [MP3, 320/CBR]
  • (2012) Григорий Лепс / Полный вперёд (Шансон) [FLAC (image+.cue), Lossless ...
  • (дискография, 1983-2008) MADONNA (pop / dance) [WavPack (image+.cue) lossle ...
  • (1994) Joy / Grand Collection (EuroDisco) [FLAC (image+.cue) lossless]
  • (2006) Батырхан Шукенов/ Отан Ана (Pop) [FLAC (image+.cue) lossless]
  • (2006) Tokio / puls 200 (Alternative Rock / Pop Rock) [FLAC (image+.cue) lo ...
  • (2011) Within Temptation / The Unforgiving (Symphonic Gothic Metal) [FLAC ( ...
  • (Дискография) The Doors (Classic Rock) [FLAC(tracks,image+.cue),APE(image+. ...
  • (2005) плюм-Бум / Чистая правда (Funk, Reggae, Pop-Punk) [APE(image+.cue), ...
  • (2011) Ёлка / Точки расставлены (R&B, Reggae, Pop) [MP3, 320 kbps/CBR]
  • НОВОГОДНЯЯ ЁЛКА!!! / JPEG / от 1024х768 до 1600х1200 / 40 шт
  • Новогодняя Ёлка!!! / 1024х768 до 1920x1200 / JPG / 53 штук
  • Павел Воля ft. Ёлка / Мальчик (Original) [2011, Pop, HDRip]
  • Ёлка / Бросай [2012, Pop, WebRip]
  • (1995) Yaki-Da / Pride (Pop, Eurodance) [FLAC (image+.сue), lossless]
  • (2004) Ex-Сектор Газа / Огненный рай (Punk-Rock) [FLAC (image+.cue), lossle ...
  • (2008) Студия 80 / Придуманный Мир (Pop) [FLAC (image+.cue), lossless]
  • Ёлка / Хочу [2012, Pop, WEBRip]
  • Информация
    Посетители, находящиеся в группе Гости, не могут оставлять комментарии к данной публикации.