вход на сайт

Имя пользователя :
Пароль :

Восстановление пароля Регистрация
(2011) VA / Танцевальный Рай 27 (Pop) [FLAC (image+.cue), lossless]
Рейтинг:
(голосов: 1)



[img]{THEME}/images/logopost.png[/img]



Исполнитель: VA
Альбом: Танцевальный Рай 27
Тип альбома: Compilation
Год выпуска: 2011
Жанр: Pop
Формат: FLAC (image+.cue)
Битрейт: lossless
Продолжительность: 01:14:44

Tреклист:

01. Mr Saxobeat [00:03:13]
02. Midnight Train [00:04:20]
03. Symphony 2011 (Master radio edit) [00:03:14]
04. Like A G6 feat. The Cataracs and Dev (Album Version) [00:03:38]
05. Never Be Alone (Radio Edit) [00:03:34]
06. Wicked Angel (Radio Edit) [00:03:27]
07. Dance (PH_Electro_Remix_Radio_Edit) [00:03:41]
08. Missing you ( radio version) [00:03:30]
09. Girls Just Want To Have Fun_Money(GEditMaster) [00:03:52]
10. 9 MM (Radio Edit) [00:03:47]
11. One Nite in L.a.(Original Video mix) [00:03:44]
12. FREEDOM (radio edit) [00:03:48]
13. Niton (The Reason) - Radio Edit - EQ [00:02:42]
14. Last Ones Standing - Benny Benassi Edit EQ [00:04:00]
15. Ti Amo (Video Edit) [00:03:48]
16. Gipsy Moves (Nah Neh Nah) (Original Radio Edit) [00:02:54]
17. Discosound (David Jones Edit) [00:03:03]
18. Sanctuary( Radio_Edit_Mastered) [00:03:45]
19. I Will Survive - Radio Edit WAV [00:03:22]
20. I Like The Trumpet (radio edit) [00:03:28]
21. Lift Me Up [00:03:03]

Отчет EAC

TextExact Audio Copy V0.99 prebeta 5 from 4. May 2009
EAC extraction logfile from 12. July 2011, 17:24
Va / Tanc_Rai 27
Used drive : MATSHITADVD-RAM UJ-841S Adapter: 1 ID: 0
Read mode : Secure
Utilize accurate stream : Yes
Defeat audio cache : Yes
Make use of C2 pointers : No
Read offset correction : 102
Overread into Lead-In and Lead-Out : No
Fill up missing offset samples with silence : Yes
Delete leading and trailing silent blocks : No
Null samples used in CRC calculations : Yes
Used interface : Installed external ASPI interface
Used output format : User Defined Encoder
Selected bitrate : 768 kBit/s
Quality : High
Add ID3 tag : No
Command line compressor : C:Program FilesExact Audio CopyFLACFLAC.EXE
Additional command line options : -T "DATE=%y" -T "GENRE=%m" -8 -V %s
TOC of the extracted CD
Track | Start | Length | Start sector | End sector
---------------------------------------------------------
1 | 0:00.00 | 3:15.02 | 0 | 14626
2 | 3:15.02 | 4:22.28 | 14627 | 34304
3 | 7:37.30 | 3:16.74 | 34305 | 49078
4 | 10:54.29 | 3:40.26 | 49079 | 65604
5 | 14:34.55 | 3:36.21 | 65605 | 81825
6 | 18:11.01 | 3:29.14 | 81826 | 97514
7 | 21:40.15 | 3:43.23 | 97515 | 114262
8 | 25:23.38 | 3:32.27 | 114263 | 130189
9 | 28:55.65 | 3:54.54 | 130190 | 147793
10 | 32:50.44 | 3:49.46 | 147794 | 165014
11 | 36:40.15 | 3:46.20 | 165015 | 181984
12 | 40:26.35 | 3:50.10 | 181985 | 199244
13 | 44:16.45 | 2:44.70 | 199245 | 211614
14 | 47:01.40 | 4:02.39 | 211615 | 229803
15 | 51:04.04 | 3:50.53 | 229804 | 247106
16 | 54:54.57 | 2:56.38 | 247107 | 260344
17 | 57:51.20 | 3:05.36 | 260345 | 274255
18 | 60:56.56 | 3:47.53 | 274256 | 291333
19 | 64:44.34 | 3:24.00 | 291334 | 306633
20 | 68:08.34 | 3:30.27 | 306634 | 322410
21 | 71:38.61 | 3:05.47 | 322411 | 336332
Range status and errors
Selected range
Filename E:Various Artists - Танцевальный Рай 27 (2011)Va - Tanc_Rai 27.wav
Peak level 100.0 %
Range quality 100.0 %
Test CRC 719070B4
Copy CRC 719070B4
Copy OK
No errors occurred
AccurateRip summary
Track 1 not present in database
Track 2 not present in database
Track 3 not present in database
Track 4 not present in database
Track 5 not present in database
Track 6 not present in database
Track 7 not present in database
Track 8 not present in database
Track 9 not present in database
Track 10 not present in database
Track 11 not present in database
Track 12 not present in database
Track 13 not present in database
Track 14 not present in database
Track 15 not present in database
Track 16 not present in database
Track 17 not present in database
Track 18 not present in database
Track 19 not present in database
Track 20 not present in database
Track 21 not present in database
None of the tracks are present in the AccurateRip database
End of status report
&nb
88e1d7df5cda0f7e57d51a6119811b34dfc5f5db(2011) VA / Танцевальный Рай 27 (Pop) [FLAC (image+.cue), lossless] (2011) VA / Танцевальный Рай 27 (Pop) [FLAC (image+.cue), lossless] " />

Аплоадер: Админ, дата: 14-07-2011, 07:56, торрент скачан: 359 раз

Понравилась раздача? Посмотрите эти:
  • (2013) Linkin Park & Steve Aoki / A Light That Never Comes (Electronic Rock ...
  • (2013) Linkin Park / Castle Of Glass (Alternative) [FLAC (image+.cue), Loss ...
  • (2013) Depeche Mode - Heaven (CD Maxi-Single) (Synthpop) [FLAC (image+.cue) ...
  • (2011) Scar Symmetry / The Unseen Empire (Melodic Death Metal) [FLAC (image ...
  • (2001) Пикник / Египтянин (Полная история) (Rock) [WavPack (image+.cue), lo ...
  • (2011) Sepultura / Kairos (Thrash Metal) [Flac(image+.cue)lossless]
  • (2011) Orjan Nilsen / In My Opinion (Trance) [FLAC (tracks+.cue), lossless] ...
  • (2002) PPK (ППК) / ReLoad. Russian Trance (Trance) [FLAC (tracks+cue), loss ...
  • (2012) Linkin Park / Burn It Down (Alternative Rock) (Single) [FLAC (image+ ...
  • (Дискография, 1987-1999) Obliveon (Technical Thrash Metal) [FLAC (image+.cu ...
  • (2012) George Michael / White Light (Pop, Electronic) [FLAC (image+.cue), l ...
  • (2012) Madonna / Superstar (Pop) [FLAC (image+.cue), lossless]
  • (2009) Miley Cyrus / The Time of Our Lives (Pop) [FLAC (tracks+.cue), lossl ...
  • (2011) Linkin Park / Iridescent (Alternative Rock) [FLAC(image+.cue), lossl ...
  • (2011) JORN / Live In Black (Heavy/Progressive Metal ) [FLAC (image+.cue), ...
  • (2011) Rammstein / Mein Land (Neue Deutsche Harte, Industrial, Tanz-Metal) ...
  • (2011) Adriano Celentano / Facciamo Finta Che Sia Vero (POP) [FLAC (image+. ...
  • (2011) Сурганова & Оркестр / Увидимся скоро (Rock) [FLAC (image+.cue), loss ...
  • (2011) This Will Destroy You / Tunnel Blanket (Post Rock) [FLAC (tracks+.cu ...
  • (2011) Metallica / Beyond Magnetic (Thrash Metal) [FLAC (image+.cue), lossl ...
  • (2012) Adrenaline Mob / Omerta (Heavy Metal/Progressive/Nu-Metal) [FLAC (im ...
  • (2012) Crippled Black Phoenix / (Mankind) The Crafty Ape (Alternative/Indie ...
  • (2010) Татьяна Буланова / Романсы (Pop) [FLAC (image+.cue), lossless]
  • (2011) Lou Reed & Metallica / Lulu (Heavy Metal, Hard Rock) [FLAC (image+.c ...
  • (2010) Punish My Heaven / First Punishment (Melodic Death Metal, Metalcore) ...
  • Информация
    Посетители, находящиеся в группе Гости, не могут оставлять комментарии к данной публикации.