вход на сайт

Имя пользователя :
Пароль :

Восстановление пароля Регистрация
(2010) Lara Fabian / The Best of (2CD Limited Edition) (Pop) [Flac(image+.cue)Lossless]
Рейтинг:
(голосов: 1)



[img]{THEME}/images/logopost.png[/img]



Исполнитель: Lara Fabian
Альбом: The Best of (2CD Limited Edition)
Тип альбома: Compilation
Год выпуска: 2010
Жанр: Pop
Формат: FLAC(image+.cue)
Битрейт: lossless
Продолжительность: 02:08:20

Tреклист:

CD1
01 On S Aimerai Tout Bas 4:02
02 Je T Aime 4:23
03 Tout 4:17
04 Si Tu M Aimes 3:30
05 Humana 5:39
06 La Difference 4:15
07 Pas Sans Toi 4:45
08 Tu T En Vas 3:47
09 Je Suis Malade 4:24
10 Requiem Pour Un Fou 4:05
11 Perdere L Amore 4:58
12 Adagio 4:24
13 I Will Love Again 3:44
14 Broken Vow 5:15

CD2
01 Ensemble 3:51
02 J Y Crois Encore 3:28
03 Immortelle 5:15
04 Tu Es Mon Autre 3:42
05 Je T Aime 4:43
06 Bambina 4:24
07 La Lettre 3:53
08 Ne Lui Parlez Plus D Elle 4:04
09 Je Me Souviens 3:17
10 Aime 4:00
11 Un Cuore Malato 4:40
12 Gottingen 5:35
13 Toute Les Femmes En Moi 4:05
14 No Big Deal 3:58
15 The Last Goodbye 4:20
16 I Guess I Love You 3:34

"Отчет EAC" ▼Exact Audio Copy V0.99 prebeta 5 from 4. May 2009

Отчёт EAC об извлечении, выполненном 12. января 2011, 17:12

Lara Fabian / Best Of - CD1

Дисковод: Optiarc DVD RW AD-7220A Adapter: 1ID: 1

Режим чтения : Достоверность
Использование точного потока : Да
Отключение кэша аудио: Да
Использование указателей C2: Нет

Коррекция смещения при чтении : 6
Способность читать области Lead-in и Lead-out : Нет
Заполнение пропущенных сэмплов тишиной: Да
Удаление блоков с тишиной в начале и конце: Нет
При вычислениях CRC использовались нулевые сэмплы : Да
Интерфейс : Установленный внешний ASPI-интерфейс

Выходной формат : Внутренние WAV-операции
Формат сэмплов: 44.100 Гц; 16 бит; стерео


TOC извлечённого CD

Трек | Старт| Длительность | Начальный сектор | Конечный сектор
---------------------------------------------------------------------
1|0:00.00 |4:01.73 | 0|18147
2|4:01.73 |4:22.41 | 18148|37838
3|8:24.39 |4:17.19 | 37839|57132
4| 12:41.58 |3:30.21 | 57133|72903
5| 16:12.04 |5:38.64 | 72904|98317
6| 21:5
956f9d71d158f1a9aebc700f729ca6f26e441aeb(2010) Lara Fabian / The Best of (2CD Limited Edition) (Pop) [Flac(image+.cue)Lossless] (2010) Lara Fabian / The Best of (2CD Limited Edition) (Pop) [Flac(image+.cue)Lossless] " />

Аплоадер: Админ, дата: 23-05-2011, 21:55, торрент скачан: 359 раз

Понравилась раздача? Посмотрите эти:
  • (2010) Lara Fabian / Greatest Hits (2 CD) (Pop) [MP3, 320 / CBR]
  • (2012) Григорий Лепс / Полный вперёд (Шансон) [FLAC (image+.cue), Lossless ...
  • (2009) СЕРГЕЙ НАГОВИЦЫН / The Best Of - 2009 (Шансон) [FLAC (image+.cue) lo ...
  • (2010) Мафик / Ангел (Шансон) [FLAC(image+cue), lossless]
  • (1994) Joy / Grand Collection (EuroDisco) [FLAC (image+.cue) lossless]
  • (1999) Paul Mauriat / Diamond Collections (Instrumental,Easy Listening) [FL ...
  • (1988) James Last / Romantic Love Songs (Instrumental) [FLAC (image+.cue) l ...
  • (2010) Ласковый Май (Солист Юра Шатунов) / Оригинальные записи 1988-1989 (2 ...
  • (2010) ST1M / Октябрь (Rap) [APE(image+.cue), lossless]
  • (2006) Батырхан Шукенов/ Отан Ана (Pop) [FLAC (image+.cue) lossless]
  • (2010) Батыр / Осторожно, милая девушка! (Pop) [FLAC (image+ cue)]
  • (2010) ДиДюЛя / Аромат (flamenco, instrumental, folk) [APE (image + .cue), ...
  • (2011) Within Temptation / The Unforgiving (Symphonic Gothic Metal) [FLAC ( ...
  • (Дискография, 1991-2010) Lara Fabian (Pop) [FLAC, APE (image+.cue), lossles ...
  • Lara Fabian / Tout En Piano [2006, Pop, TVRip]
  • (2009) Rihanna / Rated R (R`n`B) [APE (image+.cue)]
  • ( 2001) Воскресение / Звездная коллекция (Rock) [FLAC (image+.cue) lossless ...
  • (2011) Iron Savior / The Landing (Limited Edition) (Power/Heavy Metal) [FL ...
  • (1995) Юрий Шатунов / Ты помнишь... (Pop) [FLAC(image+.cue), lossless]
  • (1988) Fausto Papetti / Grand Collection (POP, Jazz) [FLAC (image+.cue), lo ...
  • (1995) Yaki-Da / Pride (Pop, Eurodance) [FLAC (image+.сue), lossless]
  • (2012) Paradise Lost / Tragic Idol (Limited Edition) (Gothic Rock, Metal) [ ...
  • (2011) Paradise Lost / Draconian Times MMXI (Limited Edition) (Gothic Rock, ...
  • (2004) Ex-Сектор Газа / Огненный рай (Punk-Rock) [FLAC (image+.cue), lossle ...
  • (2008) Студия 80 / Придуманный Мир (Pop) [FLAC (image+.cue), lossless]
  • Информация
    Посетители, находящиеся в группе Гости, не могут оставлять комментарии к данной публикации.