вход на сайт

Имя пользователя :
Пароль :

Восстановление пароля Регистрация
(2006) Владимир Маркин / Лучшее и любимое (Pop) [Ape(image+.cue)Lossless]
Рейтинг:
(голосов: 1)



[img]{THEME}/images/logopost.png[/img]



Исполнитель: Владимир Маркин
Альбом: Лучшее и любимое
Тип альбома: Compilation
Год выпуска: 2006
Жанр: Pop
Формат: APE(image+.cue)
Битрейт: lossless
Продолжительность: 00:54:13

Tреклист:
01. В доме номер восемь 3:03
02. Плакала девчонка 2:44
03. Я готов целовать 2:25
04. Ресторанный блюз 3:48
05. Мастерская 3:48
06. Сиреневый туман 3:38
07. Грустный твист 4:33
08. Девчонка-невидимка4:13
09. Канарик 2:57
10. Домовой 4:24
11. Казино 2:11
12. Царевна-несмеяна 3:06
13. Белая черёмуха 2:41
14. Лучина 2:52
15. Колокола 4:35
16. Этот двор 3:14

"Отчет EAC" ▼Exact Audio Copy V0.99 prebeta 5 from 4. May 2009

Отчёт EAC об извлечении, выполненном 18. июля 2010, 20:59

Владимир Маркин / Лучшее и любимое

Дисковод: TOSHIBA ODD-DVD SD-R5272 Adapter: 3 ID: 0

Режим чтения : Достоверность
Использование точного потока : Да
Отключение кэша аудио : Да
Использование указателей C2 : Нет

Коррекция смещения при чтении : 98
Способность читать области Lead-in и Lead-out : Нет
Заполнение пропущенных сэмплов тишиной : Да
Удаление блоков с тишиной в начале и конце : Нет
При вычислениях CRC использовались нулевые сэмплы : Да
Интерфейс : Установленный внешний ASPI-интерфейс

Выходной формат : Внутренние WAV-операции
Формат сэмплов : 44.100 Гц; 16 бит; стерео


TOC извлечённого CD

Трек | Старт | Длительность | Начальный сектор | Конечный сектор
---------------------------------------------------------------------
1 | 0:00.00 | 3:03.28 | 0 | 13752
2 | 3:03.28 | 2:44.03 | 13753 | 26055
3 | 5:47.31 | 2:24.71 | 26056 | 36926
4 | 8:12.27 | 3:47.63 | 36927 | 54014
5 | 12:00.15 | 3:47.45 | 54015 | 71084
6 | 15:47.60 | 3:37.74 | 71085 | 87433
7 | 19:25.59 | 4:33.27 | 87434 | 107935
8 | 23:59.11 | 4:12.55 | 107936 | 126890
9 | 28:11.66 | 2:57.25 | 126891 | 140190
10 | 31:09.16 | 4:23.68 | 140191 | 159983
11 | 35:33.09 | 2:11.31 | 159984 | 169839
12 | 37:44.40 | 3:06.11 | 169840 | 183800
13 | 40:50.51 | 2:41.28 | 183801 | 195903
14 | 43:32.04 | 2:52.05 | 195904 | 208808
15 | 46:24.09 | 4:35.11 | 208809 | 229444
16 | 50:59.20 | 3:13.54 | 229445 | 243973


Характеристики диапазона извлечения и сообщения об ошибках

Выбранный диапазон

Имя файла G:RipsВладимир Маркин - Лучшее и любимое.wav

Пиковый уровень 100.0 %
Качество диапазона 100.0 %
CRC теста 59CFF19A
CRC копии 59CFF19A
Копирование... OK

Ошибок не произошло

Конец отчёта

"Отчет Audiochecker" ▼=Audiochecker beta 2.0.0.457=
*****************************
01 -===- G:Rips. В доме восемь....wav - MPEG 95%
02 -===- G:Rips. Плакала девчонка.wav - MPEG 95%
03 -===- G:Rips. Я готов целовать....wav - MPEG 95%
04 -===- G:Rips. Ресторанный блюз.wav - MPEG 95%
05 -===- G:Rips. Мастерская.wav - MPEG 95%
06 -===- G:Rips. Сиреневый туман.wav - MPEG 95%
07 -===- G:Rips. Грустный твист.wav - MPEG 95%
08 -===- G:Rips�8. Девчонка-невидимка.wav - MPEG 95%
09 -===- G:Rips�9. Канарик.wav - MPEG 95%
10 -===- G:Rips. Домовой.wav - MPEG 95%
11 -===- G:Rips . Казино.wav - MPEG 95%
12 -===- G:Rips
. Царевна-несмеяна.wav - MPEG 95%
13 -===- G:Rips . Белая черемуха.wav - MPEG 95%
14 -===- G:Rips . Лучина.wav - MPEG 95%
15 -===- G:Rips
. Колокола.wav - MPEG 95%
16 -===- G:Rips. Этот двор.wav - MPEG 95%

Завершено: понедельник, 19. 07. 2010. - 12:15.16 (Время операции: 0:07.25)



3e3f1f3e41d203c182d8a410cd7a1954000f6958(2006) Владимир Маркин / Лучшее и любимое (Pop) [Ape(image+.cue)Lossless] (2006) Владимир Маркин / Лучшее и любимое (Pop) [Ape(image+.cue)Lossless] " />

Аплоадер: Админ, дата: 23-05-2011, 01:27, торрент скачан: 359 раз

Понравилась раздача? Посмотрите эти:
  • (2009) The Black Eyed Peas / The E.N.D. (The Energy Never Dies) (Target Del ...
  • (2000) Tic Tac Toe / Ist der Ruf erst ruiniert... (Rap,Hip-hop) [Lossless, ...
  • (2008) НоГГано / Первый (Rap) [APE(image+cue), lossless]
  • (2010) Баста / Баста 3 (Rap) [APE (image+.cue), lossless]
  • (2010) ST1M / Октябрь (Rap) [APE(image+.cue), lossless]
  • (2006) Батырхан Шукенов/ Отан Ана (Pop) [FLAC (image+.cue) lossless]
  • (2010) ДиДюЛя / Аромат (flamenco, instrumental, folk) [APE (image + .cue), ...
  • (2010) ДаБац (Da Budz) / Вершки Да Корешки(Rap) [APE (image+.cue), lossless ...
  • (2011) Within Temptation / The Unforgiving (Symphonic Gothic Metal) [FLAC ( ...
  • (2008) Karunesh /Enlightenment (New Age) [FLAC (image+.cue), lossless]
  • (2011) АлисА / 20.12 (Русский Рок) [WavPack (image+.cue), lossless]
  • (2011) Blues Cousins / KGB Blues (Blues Rock) [FLAC (image+.cue), lossless] ...
  • (2011) АукцЫон / Юла (Rock) [APE (image+.cue), lossless]
  • (Дискография, 1986 - 1999) Crimson Glory (Progressive Heavy Metal) [FLAC (i ...
  • (2009) Rihanna / Rated R (R`n`B) [APE (image+.cue)]
  • (1999) ВЛАДИМИР МАРКИН - Лучшие песни (pop) [mp3 160CBR]
  • (2010, OST) AC/DC / Iron Man 2 (Hard Rock, Classic Rock) [APE (image+.cue) ...
  • (2009, Cборник) Madonna / Greatest Hits [CD1 + CD2] (Pop) [APE (image+.cue) ...
  • (1995) Юрий Шатунов / Ты помнишь... (Pop) [FLAC(image+.cue), lossless]
  • (2008) Студия 80 / Придуманный Мир (Pop) [FLAC (image+.cue), lossless]
  • Информация
    Посетители, находящиеся в группе Гости, не могут оставлять комментарии к данной публикации.