вход на сайт

Имя пользователя :
Пароль :

Восстановление пароля Регистрация
(2009, Cборник) Madonna / Greatest Hits [CD1 + CD2] (Pop) [APE (image+.cue), lossless]
Рейтинг:
(голосов: 1)



[img]{THEME}/images/logopost.png[/img]



Сборник
Исполнитель: Madonna
Название сборника: Madonna / Greatest Hits [CD1 + CD2]
Год выпуска: 2009
Жанр: Pop
Формат: APE (image+.cue)
Битрейт: lossless
Log-файл: Есть
Продолжительность: 02:38:21


CD 1


Сборник
Исполнитель: Madonna
Название сборника: Greatest Hits [CD1]
Год выпуска: 2009
Жанр: Pop
Формат: APE (image+.cue)
Битрейт: lossless
Log-файл: Есть
Продолжительность: 01:19:36


Tреклист:


[04:05] 01. Madonna - 4 Minutes
[05:39] 02. Madonna - Hang Up
[04:51] 03. Madonna - Miles Away
[03:48] 04. Madonna - Jump
[03:32] 05. Madonna - Die Another Day
[03:46] 06. Madonna - Me Against The Music
[05:00] 07. Madonna - American Life
[04:36] 08. Madonna - American Pie
[04:00] 09. Madonna - Beautiful Stranger
[05:07] 10. Madonna - Secret
[04:46] 11. Madonna - What It Feels Like For A Girl
[06:15] 12. Madonna - Frozen
[04:43] 13. Madonna - You`ll See
[05:24] 14. Madonna - Take A Bow
[04:30] 15. Madonna - One More Chance
[04:42] 16. Madonna - Don`t Tell Me
[04:52] 17. Madonna - Don`t Cry For Me Argentina


"Отчет EAC" ▼
Exact Audio Copy V0.99 prebeta 5 from 4. May 2009

Отчёт EAC об извлечении, выполненном 21. ноября 2010, 19:37

Madonna / Madonna Greatest Hits vol.2 (disc one)

Дисковод: PIONEER DVD-RWDVR-217F Adapter: 1ID: 0

Режим чтения : Достоверность
Использование точного потока : Да
Отключение кэша аудио: Да
Использование указателей C2: Нет

Коррекция смещения при чтении : 96
Способность читать области Lead-in и Lead-out : Нет
Заполнение пропущенных сэмплов тишиной: Да
Удаление блоков с тишиной в начале и конце: Нет
При вычислениях CRC использовались нулевые сэмплы : Да
Интерфейс : Установленный внешний ASPI-интерфейс

Выходной формат : Внутренние WAV-операции
Формат сэмплов: 44.100 Гц; 16 бит; стерео


TOC извлечённого CD

Трек | Старт| Длительность | Начальный сектор | Конечный сектор
---------------------------------------------------------------------
1|0:00.00 |4:05.66 | 0|18440
2|4:05.66 |5:38.23 | 18441|43813
3|9:44.14 |4:50.69 | 43814|65632
4| 14:35.08 |3:48.33 | 65633|82765
5| 18:23.41 |3:32.31 |&nbs
cc6917c123480d6151619b54b862eaf9194ee4b3(2009, Cборник) Madonna / Greatest Hits [CD1 + CD2] (Pop) [APE (image+.cue), lossless] (2009, Cборник) Madonna / Greatest Hits [CD1 + CD2] (Pop) [APE (image+.cue), lossless] " />

Аплоадер: Админ, дата: 22-03-2011, 17:35, торрент скачан: 359 раз

Понравилась раздача? Посмотрите эти:
  • (2000) Lenny Kravitz / Greatest Hits (Rock, Funk) [FLAC (image+.cue), lossl ...
  • Madonna / Masterpiece [2012, Pop, WEBRip]
  • (2009) Madonna / Celebration (2 CD), (Pop) [MP3, 320 CBR]
  • (2008) Madonna / Collection Best (Рор) [MP3,192 kbps/CBR]
  • (2011) Madonna/ Get up on Your Feet by Idaho(Pop, Remix) [MP3, 320/CBR]
  • (2012) Madonna / Girl Gone Wild (single) (Pop) [MP3, 256 kbps/CBR]
  • (2012) Madonna / MDNA (Deluxe Edition) (Pop) [MP3, 320/CBR]
  • (дискография, 1983-2008) MADONNA (pop / dance) [WavPack (image+.cue) lossle ...
  • (2008) VANESSA MAE / Star Mark Greatest Hits [2CD] (Neoclassical / Violin / ...
  • Madonna / Sticky and Sweet Tour in Argentina (2009)
  • David Guetta feat. Akon vs Lady GaGa & Shakira & Pitbull & Mado ...
  • Lady Gaga vs. Madonna vs. Pitbull / I Know You Want Love Celebration (Robi ...
  • Lady Gaga, Shakira, Madonna, Akon & David Guetta, Pitbull / Musical Celebra ...
  • Lady GaGa,Shakira,Pitbull,Madonna,David Guetta feat.Akon,Black Eyed Peas / ...
  • Lady Gaga Vs Madonna Vs David Guetta / Born To Express Love (Robin Skouter ...
  • (2012) Madonna / Superstar (Pop) [FLAC (image+.cue), lossless]
  • Madonna / Die Another Day (OST James Bond) (Special Edition) [2009, Pop, HD ...
  • Madonna / Die Another Day [2002, Pop, HDTVRip]
  • Madonna / Revolver (2009)
  • Madonna / Sorry [2005, Pop, HDTV]
  • Madonna / Give It To Me [2008, Pop, HDTVRip]
  • (2009, Cборник) Madonna / Greatest Hits [CD1 + CD2] (Pop) [CD Rip] [MP3, 3 ...
  • Madonna feat. Justin Timberlake / 4 Minutes [2008, Pop, HDTVRip]
  • Madonna feat. M.I.A. & Nicki Minaj / Give Me All Your Luvin [2012, Dance, W ...
  • Madonna / Turn Up The Radio [2012, Pop, HDRip]
  • Информация
    Посетители, находящиеся в группе Гости, не могут оставлять комментарии к данной публикации.