вход на сайт

Имя пользователя :
Пароль :

Восстановление пароля Регистрация
(2009) Челси / Точка возврата (Pop) [APE (image+.cue), lossless]
Рейтинг:
(голосов: 1)



[img]{THEME}/images/logopost.png[/img]



Исполнитель: Челси
Альбом: Точка возврата
Тип альбома: Студийный
Год выпуска: 2009
Жанр: Pop
Формат: APE+.сue
Битрейт: lossless
Log-файл: Есть
Продолжительность: 00:39:25

Tреклист:
(03:42)01.Точка возврата
(03:22)02.Крылья
(03:16)03.Я не умру без твоей любви
(03:22)04.Лети
(03:50)05.Мне не хватает ее глаз
(03:38)06.Во сне и наяву
(03:31)07.Ангел мой
(03:51)08.Россия - Чемпионка
(03:50)09.Счастье в каждый дом
(03:08)10.Любовь всегда права - Feat. Филипп Киркоров
(03:49)11.Every Little Thing She Does

"Отчет EAC" ▼Exact Audio Copy V0.99 prebeta 5 from 4. May 2009
Отчёт EAC об извлечении, выполненном 1. декабря 2010, 8:04
Челси / Точка возврата
Дисковод: HL-DT-STDVDRAM GE20NU10 Adapter: 3ID: 0
Режим чтения : Достоверность
Использование точного потока : Да
Отключение кэша аудио: Да
Использование указателей C2: Нет
Коррекция смещения при чтении : 667
Способность читать области Lead-in и Lead-out : Нет
Заполнение пропущенных сэмплов тишиной: Да
Удаление блоков с тишиной в начале и конце: Нет
При вычислениях CRC использовались нулевые сэмплы : Да
Интерфейс : Встроенный Win32-интерфейс для Win NT/2000
Выходной формат : Внутренние WAV-операции
Формат сэмплов: 44.100 Гц; 16 бит; стерео
TOC извлечённого CD
Трек | Старт| Длительность | Начальный сектор | Конечный сектор
---------------------------------------------------------------------
1|0:00.00 |3:42.18 | 0|16667
2|3:42.18 |3:22.72 | 16668|31889
3|7:05.15 |3:16.10 | 31890|46599
4| 10:21.25 |3:22.45 | 46600|61794
5| 13:43.70 |3:50.51 | 61795|79095
6| 17:34.46 |3:38.62 | 79096|95507
7| 21:13.33 |3:31.10 | 95508| 111342
8| 24:44.43 |3:51.61 |111343&n
2cfa6d0c34297cdf5b03581a3c55ca4ab559e2ab(2009) Челси / Точка возврата (Pop) [APE (image+.cue), lossless] (2009) Челси / Точка возврата (Pop) [APE (image+.cue), lossless] " />

Аплоадер: Админ, дата: 6-03-2011, 00:11, торрент скачан: 359 раз

Понравилась раздача? Посмотрите эти:
  • (дискография, 1983-2008) MADONNA (pop / dance) [WavPack (image+.cue) lossle ...
  • (2000) Tic Tac Toe / Ist der Ruf erst ruiniert... (Rap,Hip-hop) [Lossless, ...
  • (2008) НоГГано / Первый (Rap) [APE(image+cue), lossless]
  • (2010) Мафик / Ангел (Шансон) [FLAC(image+cue), lossless]
  • (2007) Morandi / N3xt (Pop) [APE, (image + .cue), lossless]
  • (2010) Баста / Баста 3 (Rap) [APE (image+.cue), lossless]
  • (2010) ST1M / Октябрь (Rap) [APE(image+.cue), lossless]
  • (2006) Батырхан Шукенов/ Отан Ана (Pop) [FLAC (image+.cue) lossless]
  • (2010) Хамиль и Змей (Каста) / ХЗ (Rap) [APE(image+.cue), lossless]
  • (2010) Noize MC / Последний Альбом (Rap) [APE(image+.cue), lossless]
  • (2010) ДиДюЛя / Аромат (flamenco, instrumental, folk) [APE (image + .cue), ...
  • (1985) BABYS GANG / Challenger (Pop,Italo Disco) [APE(image+.cue)lossless] ...
  • (2010) ДаБац (Da Budz) / Вершки Да Корешки(Rap) [APE (image+.cue), lossless ...
  • (2005) плюм-Бум / Чистая правда (Funk, Reggae, Pop-Punk) [APE(image+.cue), ...
  • (2011) АукцЫон / Юла (Rock) [APE (image+.cue), lossless]
  • (2003) THE BLACK EYED PEAS / Elephunk (RnB) [Ape (image+.cue), lossless]
  • (2009) Rihanna / Rated R (R`n`B) [APE (image+.cue)]
  • (2009) Guf / Дома (Rap) [APE (image+.cue)]
  • ( 2001) Воскресение / Звездная коллекция (Rock) [FLAC (image+.cue) lossless ...
  • (1993) Любовь Успенская / Любимый (шансон) [APE (image+.cue), lossless]
  • (2009, Cборник) Madonna / Greatest Hits [CD1 + CD2] (Pop) [APE (image+.cue) ...
  • (2011) N1NT3NDO / N1NT3NDO (Rap) [APE (image+.сue), lossless]
  • (2009) Kamazz (3NT) / Завязал (Hip-Hop) [APE (image+.cue) lossless]
  • (2004) Ex-Сектор Газа / Огненный рай (Punk-Rock) [FLAC (image+.cue), lossle ...
  • (2008) Студия 80 / Придуманный Мир (Pop) [FLAC (image+.cue), lossless]
  • Информация
    Посетители, находящиеся в группе Гости, не могут оставлять комментарии к данной публикации.