вход на сайт

Имя пользователя :
Пароль :

Восстановление пароля Регистрация
(2010) Shakira / Sale El Sol (Latin Pop, Merengue) [FLAC(tracks+.cue), lossless]
Рейтинг:
(голосов: 1)



[img]{THEME}/images/logopost.png[/img]



Shakira / Sale El Sol

Исполнитель: Shakira
Альбом: Sale El Sol
Тип альбома: LP
Год выпуска: 2010
Жанр: Latin Pop, Merengue
Формат: FLAC(tracks+.cue)
Битрейт: lossless
Продолжительность: 00:46:11

Tреклист:
01 - Shakira - Sale El Sol (03:20)
02 - Shakira Ft. Dizee Rascal - Loca (03:13)
03 - Shakira - Antes De Las Seis (02:55)
04 - Shakira Ft. Residente calle13 - Gordita (03:26)
05 - Shakira - Addicted To You (02:29)
06 - Shakira - Lo Que Mas (02:28)
07 - Shakira - Mariposas (03:47)
08 - Shakira Ft. Pitbull - Rabiosa (02:51)
09 - Shakira - Devocion (03:30)
10 - Shakira - Islands (02:43)
11 - Shakira - Tu Boca (03:27)
12 - Shakira - Waka Waka (This Time For Africa) (K-Mix) (03:04)
13 - Shakira Ft. El Cata - Loca (03:04)
14 - Shakira Ft. El Cata - Rabiosa (02:52)
15 - Shakira - Waka Waka (Esto As Africa) (K-Mix) (03:04)



"Отчет EAC" ▼Exact Audio Copy V0.99 prebeta 5 from 4. May 2009

EAC uitlezen log bestand van 16. Oktober 2010, 17:27

Shakira / The Sun Comes Out

gebruikt loopwerk: PIONEER DVD-RWDVR-218L Adapter: 3ID: 0

Lees mode: Veilig
Gebruik accurate stream: Ja
Audio buffer uitgeschakeld : Neen
Gebruik C2 Foutinformatie: Ja

Lees-offset correctie: 6
Overlees in Lead-In en Lead-Out: Neen
Vul ontbrekende offset samples met stiltes aan : Ja
Wis stilte blokken aan het begin en einde: Neen
Nul samples gebruikt in CRC berekeningen : Ja
Gebruik interface: Native Win32 interface voor Win NT/2000/XP

Gebruik uitgave formaat : Interne WAV Routines
Sample formaat: 44.100 Hz; 16 Bit; Stereo


TOC van de uitgelezen CD

Track | Start|Lengte| Startsector | Eindsector
--------------------------------------------------------
1|0:00.00 |3:20.25 |0|15024
2|3:20.25 |3:13.54 |15025|29553
3|6:34.04 |2:55.47 |29554|42725
4|9:29.51 |3:26.36 |42726|58211
5| 12:56.12 |2:27.68 |58212|69304
6| 15:24.05 |2:26.72 |69305|80326
7| 17:51.02 |3:47.22 |80327|97373
&nbs
6a04cfb33316dd54a3b4e660ea7cd293c39da537(2010) Shakira / Sale El Sol (Latin Pop, Merengue) [FLAC(tracks+.cue), lossless] (2010) Shakira / Sale El Sol (Latin Pop, Merengue) [FLAC(tracks+.cue), lossless] " />

Аплоадер: Админ, дата: 20-10-2010, 12:29, торрент скачан: 359 раз

Понравилась раздача? Посмотрите эти:
Информация
Посетители, находящиеся в группе Гости, не могут оставлять комментарии к данной публикации.