вход на сайт

Имя пользователя :
Пароль :

Восстановление пароля Регистрация
(2012) Ne-Yo / R.E.D. (Target Exclusive Edition) (R&B, Soul, Pop) [FLAC (tracks+.cue), lossless]
Рейтинг:
(голосов: 1)



[img]{THEME}/images/logopost.png[/img]



Исполнитель: Ne-Yo
Альбом: R.E.D. (Target Exclusive Edition)
Тип альбом: Студийный
Год выпуска:2012
Жанр:R&B, Soul, Pop
Страна (Издатель, Каталожный номер):US(Motown Records, B0017739-02)
Аудиокодек: FLAC (*.flac)
Тип рипа: tracks+.cue
Битрейт: lossless
Лог файлы: присутствуют
Наличие сканов в содержимом раздачи: Есть
Продолжительность: 01:16:51

Wikipedia | Official page | Last.fm | Facebook

Об исполнителе: Ne-Yo (Шаффер Чимер Смит) - обладатель Грэмми, американский певец, рэпер, продюсер, актёр и танцор. Свою карьеру начинал как автор песен, самой известной его работой была песня «Let Me Love You» для Mario. Успех этого сингла способствовал подписанию контракта между Ne-Yo и Def Jam Recordings.

Tреклист:
01. Cracks in Mr. Perfect (4:56)
02. Lazy Love (3:16)
03. Let Me Love You (Until You Learn To Love Yourself) (4:12)
04. Miss Right (3:50)
05. Jealous (4:08)
06. Don’t Make ‘Em Like You (Feat. Wiz Khalifa) (4:10)
07. Be the One (3:47)
08. Stress Reliever (3:36)
09. She Is (Feat. Tim McGraw) (3:27)
10. Carry On (3:57)
11. Unconditional (3:41)
12. Forever Now (3:41)
13. Shut Me Down (4:38)
14. Should Be You (Feat. Fabolous & Diddy) (4:16)
15. My Other Gun (3:18)
16. Alone With You (Maddie’s Song) (4:59)
17. Let’s Go (Feat. Calvin Harris) (3:55)
18.To Whom It May Concern (4:21)
19.All She Wants (Feat. Jeezy & Ravaughn) (4:44)

Лог XLD ▼Text
X Lossless Decoder version 20121027 (142.1)

XLD extraction logfile from 2012-11-06 09:48:00 -0500

Ne-Yo / R.E.D.

Used drive : MATSHITA DVD-R UJ-875 (revision DB09)

Ripper mode : XLD Secure Ripper
Disable audio cache : OK for the drive with a cache less than 1375KiB
Make use of C2 pointers : NO
Read offset correction : 102
Max retry count : 100
Gap status : Analyzed, Appended

TOC of the extracted CD
Track | Start | Length | Start sector | End sector
---------------------------------------------------------
1 | 00:00:00 | 04:56:11 | 0 | 22210
2 | 04:56:11 | 03:16:37 | 22211 | 36947
3 | 08:12:48 | 04:11:47 | 36948 | 55819
4 | 12:24:20 | 03:49:39 | 55820 | 73033
5 | 16:13:59 | 04:07:39 | 73034 | 91597
6 | 20:21:23 | 04:09:62 | 91598 | 110334
7 | 24:31:10 | 03:47:00 | 110335 | 127359
8 | 28:18:10 | 03:35:72 | 127360 | 143556
9 | 31:54:07 | 03:26:45 | 143557 | 159051
10 | 35:20:52 | 03:56:72 | 159052 | 176823
11 | 39:17:49 | 03:41:17 | 176824 | 193415
12 | 42:58:66 | 03:41:33 | 193416 | 210023
13 | 46:40:24 | 04:38:01 | 210024 | 230874
14 | 51:18:25 | 04:15:72 |
20cb5f0dda3fb5e429062ee5f1dfd56466e88f45(2012) Ne-Yo / R.E.D. (Target Exclusive Edition) (R&B, Soul, Pop) [FLAC (tracks+.cue), lossless] (2012) Ne-Yo / R.E.D. (Target Exclusive Edition) (R&B, Soul, Pop) [FLAC (tracks+.cue), lossless] " />

Аплоадер: Админ, дата: 23-11-2012, 23:06, торрент скачан: 359 раз

Понравилась раздача? Посмотрите эти:
  • (2013) Kanye West | Yeezus (Rap|Experimental Hip-Hop) [FLAC (tracks+.cue), ...
  • (2012) The Lumineers / The Lumineers (Indie-folk, Folk-rock) [FLAC (tracks+ ...
  • (2012) Emma Hewitt / Burn The Sky Down (2CD) (Trance) [FLAC (tracks+.cue), ...
  • (2013) by M83, Anthony Gonzalez & Joseph Trapanese / Обливион / Oblivion (S ...
  • (2013) Paramore / Paramore (Japan Edition) (Alternative Rock) [FLAC (tracks ...
  • (2013) Bullet For My Valentine / Temper Temper (Japanese Deluxe Edition) (M ...
  • (2012) Taylor Swift / Red (Target Exclusive Deluxe Edition) + Booklet (Pop ...
  • (2012) Владимир Кузьмин / Endorfin (Русский Рок) [FLAC (image+.cue), lossle ...
  • (2010) Katie Melua / The House ( jazz-pop, vocal jazz) [FLAC (tracks + .cu ...
  • (2011) Moby / Destroyed (Electronic, Downtempo, Ambient) [FLAC (tracks+.cue ...
  • (2011) Sade / The Ultimate Collection ( Soul, Smooth-Jazz, Pop) [FLAC (trac ...
  • (2011) Foster the People / Torches [Best Buy Exclusive Edition] (Indie / El ...
  • (2011) ATB / Distant Earth (Remixed) (Trance) [FLAC (tracks+.cue), lossless ...
  • (2012) Bruce Springsteen / Wrecking Ball (Folk Rock) [FLAC (tracks+.cue),l ...
  • (2009) Paul Cardall / Sacred Piano (New Age) [FLAC (tracks+.cue), lossless] ...
  • (2012) Hans Zimmer / The Dark Knight Rises (Film score) [FLAC (tracks+.cu ...
  • (2012) Lana Del Rey / Born to Die: The Paradise Edition (2 CD) (Indie Pop) ...
  • (2012) Linkin Park / LP Underground 12 (Alternative Rock) [FLAC (tracks+.cu ...
  • (2011) Lil Wayne / Tha Carter IV (Target Deluxe Edition) (Hip-Hop) [FLAC (t ...
  • (2012) Ne-Yo / R.E.D. (Deluxe Edition) (R&B) [MP3, 320/CBR]
  • (2010) Sade / Soldier Of Love ( jazz, soul, blues) [FLAC (tracks) lossless] ...
  • (2012) Lana Del Rey / Born To Die (Indie Pop) [FLAC (tracks+.cue), lossless ...
  • (2012) Young Guns / Bones (Alternative Rock) [FLAC (tracks +.cue), lossless ...
  • (2012) Switchfoot / Vice Re-Verses (Remixes) (Alternative, Christian Rock, ...
  • (2011) 7eventh Time Down / Alive In You (Alternative Rock/Modern Rock/Chris ...
  • Информация
    Посетители, находящиеся в группе Гости, не могут оставлять комментарии к данной публикации.