вход на сайт

Имя пользователя :
Пароль :

Восстановление пароля Регистрация
(2011) Rihanna / Talk That Talk (Deluxe Edition) (R&B) [ALAC (tracks), lossless]
Рейтинг:
(голосов: 1)



[img]{THEME}/images/logopost.png[/img]



Исполнитель: Rihanna
Альбом: Talk That Talk (Deluxe Edition)
Страна: USA
Тип альбома: Студийный
Год выпуска: 2011
Жанр: R&B
Формат: ALAC (tracks)
Битрейт: lossless
Продолжительность: 00:49:06


Треклист ▼01. You Da One (3:20)
02 Where Have You Been (4:02)
03 We Found Love (feat. Calvin Harris) (3:35)
04 Talk That Talk (feat. Jay-Z) (3:29)
05 Cockiness (Love It) (2:58)
06 Birthday Cake (1:18)
07 We All Want Love (3:57)
08 Drunk On Love (3:32)
09 Roc Me Out (3:29)
10 Watch N Learn (3:31)
11 Farewell (4:16)
12 Red Lipstick (3:37)
13 Do Ya Thang (3:43)
14 Fool In Love (4:15)

Лог создания рипа ▼Exact Audio Copy V1.0 beta 3 from 29. August 2011

EAC extraction logfile from 29. November 2011, 1:34

Rihanna / Talk That Talk

Used drive: Optiarc DVD RW AD-7710H Adapter: 0ID: 0

Read mode : Secure
Utilize accurate stream : Yes
Defeat audio cache: Yes
Make use of C2 pointers : No

Read offset correction: 48
Overread into Lead-In and Lead-Out: No
Fill up missing offset samples with silence : Yes
Delete leading and trailing silent blocks : No
Null samples used in CRC calculations : Yes
Used interface: Native Win32 interface for Win NT & 2000
Gap handling: Appended to previous track

Used output format: User Defined Encoder
Selected bitrate: 320 kBit/s
Quality : High
Add ID3 tag : Yes
Command line compressor : C:Program FilesExact Audio CopyFlacflac.exe
Additional command line options : -8 -V -T "ARTIST=%artist%" -T "TITLE=%title%" -T "ALBUM=%albumtitle%" -T "DATE=%year%" -T "TRACKNUMBER=%tracknr%" -T "GENRE=%genre%" -T "PERFORMER=%albuminterpret%" -T "COMPOSER=%composer%" %haslyrics%--tag-from-file=LYRICS="%lyricsfile%"%haslyrics% -T "ALBUMARTIST=%albumartist%" -T "DISCNUMBER=%cdnumber%" -T "TOTALDISCS=%totalcds%" -T "TOTALTRACKS=%numtracks%" -T "COMMENT=%comment%" %source% -o %dest%

TOC of the extracted CD

Track | Start|Length| Start sector | End sector
---------------------------------------------------------
1|0:00.00 |3:20.01 | 0|15000
2|3:20.01 |4:02.51 | 15001|33201
3|7:22.52 |3:35.17 | 33202|49343
 
bea905affeab84589590ec2816774c9d6c2ef491(2011) Rihanna / Talk That Talk (Deluxe Edition) (R&B) [ALAC (tracks), lossless] (2011) Rihanna / Talk That Talk (Deluxe Edition) (R&B) [ALAC (tracks), lossless] " />

Аплоадер: Админ, дата: 17-02-2012, 23:54, торрент скачан: 359 раз

Понравилась раздача? Посмотрите эти:
  • (2013) Paul McCartney / New (Deluxe Edition) (Rock) [FLAC (image,+.cue), lo ...
  • (2013) Prodigy & The Alchemist / Albert Einstein (Underground Hip-Hop) [FLA ...
  • (2013) Fall Out Boy / Save Rock and Roll (Pop-Punk) [ALAC (tracks), lossles ...
  • (2013) Hans Zimmer / Человек из стали / Man Of Steel [Deluxe Edition] (2 CD ...
  • (2013) A$AP Rocky | Long. Live. ASAP (Deluxe Edition) (Rap|Hip-Hop) [FLAC ( ...
  • (2011) Coldplay / Mylo Xyloto (Alternative Rock) [FLAC (tracks+.cue), lossl ...
  • (2011) Daughtry / Break the Spell (Deluxe Edition) (Alt. Rock / Modern Rock ...
  • (2011) Korn (KoЯn) / The Path Of Totality (Special Edition) (Nu Metal | Dub ...
  • (2012) Marilyn Manson / Born Villain (Industrial, Shock-Rock) [FLAC (tracks ...
  • (2012) Amy MacDonald / Life In A Beautiful Light (Deluxe Edition) (Acoustic ...
  • (2012) Tomandandy / Resident Evil: Retribution (Score, Soundtrack)[FLAC (tr ...
  • (2012) Sally Night / Love For Sale (Vocal Jazz) [FLAC (tracks+.cue), lossle ...
  • (2012) Ke$ha (Kesha) - Warrior (Deluxe Edition) (Pop, Dance) [FLAC (tracks ...
  • (1996) The Rasmus / Peep (Finnish Version) (Alternative Rock) [FLAC (tracks ...
  • (2012) Usher / Looking 4 Myself (Deluxe Version) (R&B, Soul) [FLAC (tracks+ ...
  • (2011) Evanescence / Evanescence (Alternative Rock) [FLAC (tracks+.cue), lo ...
  • (2012) Les Friction / Les Friction (Alt. Rock/Neo-Classical/Orchestral) [FL ...
  • (2011) SeeS / The enD (Progressive/Math Metal) [FLAC (tracks+.cue), lossles ...
  • (2012) Our Lady Peace / Curve (Alternative/Rock) [FLAC (tracks+.cue), lossl ...
  • (2012) Thousand Foot Krutch / The End Is Where We Begin (Christian/Alt.Rock ...
  • Информация
    Посетители, находящиеся в группе Гости, не могут оставлять комментарии к данной публикации.