вход на сайт

Имя пользователя :
Пароль :

Восстановление пароля Регистрация
(2001, сборник) VA / Stimulated vol.1 (R&B, Pop) [APE (image+.cue), lossless]
Рейтинг:
(голосов: 1)



[img]{THEME}/images/logopost.png[/img]



Сборник
Исполнитель: VA
Название сборника: Stimulated vol.1
Год выпуска: 2001
Жанр: R&B, Pop
Формат: APE (image+.сue)
Битрейт: lossless
Продолжительность: 01:15:52

Tреклист:
01. HOM - Its... Hom (4:02)
02. Young Zee - I Love It (4:03) - Rap [Featuring] - Rah Digga
03. DE LA SOUL - Speed Limit (4:28) - Rap [Featuring] - Supa Dave West
04. EVERLAST & XZIBIT - Shroomz Pt. II (3:13)
05. Camp Lo - Something For Nothing (3:32)
06. V.O.R. - Beyond City Lights (4:45)
07. EVERLAST & B-REAL (of Cypress Hill) - Laugh Now (4:25)
08. HOM & Pretty Ugly - You Wont Get It (4:13)
09. SADAT X - The Great Dot (3:48)
10. DJ Riz - Interlude (2:46)
11. Tha Liks - Get Your Drinks On (4:56) - Vocals [Featuring] - NDea Davenport, Tha Alkaholiks
12. Camp Lo - All The Same (3:36) - Vocals [Featuring] - Jimmy Cozier
13. Pep Love - Crack The Concrete (4:19) - Vocals [Featuring] - Jeni Fujita
14. Del - Del Meets The Dummies (3:25)
15. DILATED PEOPLES - Stimulation (3:37)
16. Phil Da Agony , Chace Infinite & Krondon - Home Team (4:08)
17. THE HIGH & MIGHTY - Whats After (3:59)
18. King Tee - Quiet As Kept (4:10)
19. Missin Linx - Family Ties (Remix) (4:18) - Rap [Featuring] - Prodigy

Лог создания рипа ▼TextExact Audio Copy V0.99 prebeta 5 from 4. May 2009

Отчёт EAC об извлечении, выполненном 2. июня 2009, 16:26

Various / Stimulated Volume 1

Дисковод: TEAC DV-W516GA Adapter: 0 ID: 0

Режим чтения : Достоверность
Использование точного потока : Да
Отключение кэша аудио : Да
Использование указателей C2 : Нет

Коррекция смещения при чтении : 12
Способность читать области Lead-in и Lead-out : Нет
Заполнение пропущенных сэмплов тишиной : Да
Удаление блоков с тишиной в начале и конце : Нет
При вычислениях CRC использовались нулевые сэмплы : Да
Интерфейс : Встроенный Win32-интерфейс для Win NT/2000

Выходной формат : Внутренние WAV-операции
Формат сэмплов : 44.100 Гц; 16 бит; стерео

TOC извлечённого CD

Трек | Старт | Длительность | Начальный сектор | Конечный сектор
---------------------------------------------------------------------
1 | 0:00.00 | 4:04.55 | 0 | 18354
2 | 4:04.55 | 4:04.12 | 18355 | 36666
3 | 8:08.67 | 4:28.58 | 36667 | 56824
4 | 12:37.50 | 3:13.22 | 56825 | 71321
5 | 15:50.72 | 3:31.70 | 71322 | 87216
6 | 19:22.67 | 4:44.65 | 87217 | 108581
7 | 24:07.57 | 4:24.60 | 108582 | 128441
8 | 28:32.42 | 4:13.48 | 128442 | 147464
9 | 32:46.15 | &n
7b0264e276d457c81e3b77183b3b94581d85a3cd(2001, сборник) VA / Stimulated vol.1 (R&B, Pop) [APE (image+.cue), lossless] (2001, сборник) VA / Stimulated vol.1 (R&B, Pop) [APE (image+.cue), lossless] " />

Аплоадер: Админ, дата: 24-10-2011, 23:13, торрент скачан: 359 раз

Понравилась раздача? Посмотрите эти:
  • (2000) Lenny Kravitz / Greatest Hits (Rock, Funk) [FLAC (image+.cue), lossl ...
  • (2002) a-ha / Lifelines (Alternative Rock, Synth-pop ) [FLAC (image + .cue ...
  • (дискография, 1983-2008) MADONNA (pop / dance) [WavPack (image+.cue) lossle ...
  • (2000) Tic Tac Toe / Ist der Ruf erst ruiniert... (Rap,Hip-hop) [Lossless, ...
  • (2007) Morandi / N3xt (Pop) [APE, (image + .cue), lossless]
  • (2006) Батырхан Шукенов/ Отан Ана (Pop) [FLAC (image+.cue) lossless]
  • (1998) Pharao / The Return (Eurodance) [APE (image+.cue)]
  • (1984) Boney M / Ten Thousand Lightyears (Disco) [APE (image+.cue) lossles ...
  • (1985) BABYS GANG / Challenger (Pop,Italo Disco) [APE(image+.cue)lossless] ...
  • (2011) Blues Cousins / KGB Blues (Blues Rock) [FLAC (image+.cue), lossless] ...
  • (2011) АукцЫон / Юла (Rock) [APE (image+.cue), lossless]
  • (2003) THE BLACK EYED PEAS / Elephunk (RnB) [Ape (image+.cue), lossless]
  • (2009) Rihanna / Rated R (R`n`B) [APE (image+.cue)]
  • ( 2001) Воскресение / Звездная коллекция (Rock) [FLAC (image+.cue) lossless ...
  • (2009) Челси / Точка возврата (Pop) [APE (image+.cue), lossless]
  • (2009, Cборник) Madonna / Greatest Hits [CD1 + CD2] (Pop) [APE (image+.cue) ...
  • (2011) N1NT3NDO / N1NT3NDO (Rap) [APE (image+.сue), lossless]
  • (1995) Yaki-Da / Pride (Pop, Eurodance) [FLAC (image+.сue), lossless]
  • (2004) Ex-Сектор Газа / Огненный рай (Punk-Rock) [FLAC (image+.cue), lossle ...
  • (2008) Студия 80 / Придуманный Мир (Pop) [FLAC (image+.cue), lossless]
  • Информация
    Посетители, находящиеся в группе Гости, не могут оставлять комментарии к данной публикации.