вход на сайт

Имя пользователя :
Пароль :

Восстановление пароля Регистрация
(2004-2006) Amy Winehouse (Rhythm & Blues/Neo-Soul, Ska, Jazz Pop) [FLAC(tracks+.cue)lossless]
Рейтинг:
(голосов: 1)



[img]{THEME}/images/logopost.png[/img]





Исполнитель: Amy Winehouse
Страна: UK
Жанр: Rhythm & Blues/Neo-Soul, Ska, Jazz Pop
Формат: FLAC(tracks+.cue)
Битрейт: lossless
Продолжительность: 01:31:01

Об исполнителе: Amy Winehouse ▼
Amy Winehouse

Born September 14, 1983,London, Greater London, United Kingdom
Died July 23, 2011 //Camden, Greater London, United Kingdom
Notes Daughter of Mitch Winehouse.
Also Known As Amy Jade Winehouse [birth name]
***

Студийные альбомы: Amy Winehouse ▼
2004 - Frank (Flack(tracks+.cue))



Продолжительность: 00:58:46

Tреклист:

01= Intro / Stronger Than Me = [03:54]
02= You Sent Me Flying = [06:50]
03= Know You Now = [03:03]
04= Fuck Me Pumps = [03:20]
05= I Heard Love Is Blind = [02:10]
06= Moodys Mood For Love = [03:28]
07= (There Is) No Greater Love = [02:08]
08= In My Bed = [05:17]
09= Take The Box = [03:20]
10= October Song = [03:24]
11= What It Is About Men = [03:29]
12= Help Yourself = [05:01]
13= Amy Amy Amy / Outro = [13:16]


Отчет EAC: ▼


EAC extraction logfile from 9. August 2007, 3:56 for CD
Amy Winehouse / Frank

Used drive: _NECDVD_RW ND-2510A Adapter: 1ID: 0
Read mode : Secure with NO C2, accurate stream, disable cache
Read offset correction : 48
Overread into Lead-In and Lead-Out : No

Used output format : C:Program FilesFLACflac.exe (User Defined Encoder)
192 kBit/s
Additional command line options : -8 -A tukey(0.25) -A gauss(0.1875) -b 4096 -V -T "artist=%a" -T "title=%t" -T "album=%g" -T "date=%y" -T "tracknumber=%n" -T "genre=%m" %s --sector-align

Other options:
Fill up missing offset samples with silence : Yes
Delete leading and trailing silent blocks : No
Installed external ASPI interface


Track1
Filename C:wipNew Folder1 - Amy Winehouse - Intro , Stronger Than Me .wav

Pre-gap length0:00:02.00

Peak level 99.9 %
Track quality 100.0 %
Test CRC 2E5DEF9E
Copy CRC 2E5DEF9E
Copy OK

Track2
Filename C:wipNew Folder2 - Amy Winehouse - You Sent Me Flying .wav

Pre-gap length0:00:00.32

Peak level 99.8 %
Track quality 99.9 %
Test CRC 8A1B580E
Copy CRC 8A1B580E
Copy OK

Track3
Filename C:wipNew Folder3 - Amy Winehouse - Know You Now .wav

Pre-gap length0:00:00.85

Peak level 99.8 %
Track quality 99.9 %
Test CRC C5F71DF0
Copy CRC C5F71DF0
Copy OK

Track4
Filename C:wipNew Folder4 - Amy Winehouse - Fuck Me Pumps .wav

Pre-gap length0:00:00.46

Peak level 99.8 %
Track quality 100.0 %
Test CRC DA7DAC8B
Copy CRC DA7DAC8B
Copy OK

Track5
F
0c0e3b0f441b33b8448109991507e74799dca4b5(2004-2006) Amy Winehouse (Rhythm & Blues/Neo-Soul, Ska, Jazz Pop) [FLAC(tracks+.cue)lossless] (2004-2006) Amy Winehouse (Rhythm & Blues/Neo-Soul, Ska, Jazz Pop) [FLAC(tracks+.cue)lossless] " />

Аплоадер: Админ, дата: 25-07-2011, 09:39, торрент скачан: 359 раз

Понравилась раздача? Посмотрите эти:
  • (2012, Сборник) VA / Вечерняя Коллекция (Звуки природы) (Relax) [FLAC (trac ...
  • (Jazz) Ray Charles — The Very Best Of Ray Charles - 2000, FLAC (tracks), lo ...
  • (Soundtrack,1999) Fight Club / Бойцовский клуб - The Dust Brothers [FLAC (t ...
  • (1999) Red Hot Chili Peppers - Californication (Alternative rock, Funk) [FL ...
  • (Soundtrack,2007) The Orange Box - (Half-Life 2, Portal, Team Fortress 2) [ ...
  • (Дискография, 2000-2007) SUM 41 (Punk-Rock/Pop-Punk) [FLAC (tracks + .cue), ...
  • (2001) GORILLAZ / Gorillaz (US Edition) (Hip-Hop) [FLAC (image+cue), lossle ...
  • (Дискография) GORILLAZ (Trip-Hop) [FLAC (tracks + .cue) lossless]
  • (2010 , OST) Пипец / Kick Ass (OST) [FLAC (tracks+.cue) lossless]
  • (2008) Karunesh /Enlightenment (New Age) [FLAC (image+.cue), lossless]
  • (1988) David Grisman Quintet feat. Svend Asmussen / Svingin With Svend (Jaz ...
  • (1991, 4xCD Box Set) James Brown / Star Time (Funk, Soul, Blues, Disco) [FL ...
  • (2008) Miley Cyrus - Breakout (Platinum Edition) (Pop) [FLAC (tracks+.cue), ...
  • (2009) Miley Cyrus / The Time of Our Lives (Pop) [FLAC (tracks+.cue), lossl ...
  • (2010) [AMATORY] / Инстинкт обречённых (Nu Metal) [FLAC (tracks), lossless] ...
  • (2011) Linkin Park / Iridescent (Alternative Rock) [FLAC(image+.cue), lossl ...
  • (1999) Necrophagist / Onset Of Putrefaction (Technical Death Metal) [FLAC ( ...
  • (2011) This Will Destroy You / Tunnel Blanket (Post Rock) [FLAC (tracks+.cu ...
  • (2004) Дельфин / Запись концерта 19.11.04 (Alternative|Experimental) [FLAC ...
  • (Дискография, 2002 - 2012) Rodrigo y Gabriela (Acoustic, Flamenco, Classica ...
  • Информация
    Посетители, находящиеся в группе Гости, не могут оставлять комментарии к данной публикации.