вход на сайт

Имя пользователя :
Пароль :

Восстановление пароля Регистрация
(2009) Timbaland / Shock Value II (Hip-Hop / RnB) [FLAC (tracks+.cue), lossless]
Рейтинг:
(голосов: 1)



[img]{THEME}/images/logopost.png[/img]



Исполнитель: Timbaland
Альбом: Shock Value II
Тип альбома: Студийный
Год выпуска: 2009
Жанр: Hip-Hop / RnB
Формат: FLAC (tracks+.cue)
Битрейт: lossless
Продолжительность: 01:13:15

Tреклист:
[00:48] 01. Timbaland - Intro by DJ Felli Fell
[03:52] 02. Timbaland - Carry Out (feat. Justin Timberlake)
[04:27] 03. Timbaland - Lose Control (feat. JoJo)
[04:00] 04. Timbaland - Meet In The Middle (feat. BranNu)
[04:00] 05. Timbaland - Say Someting (feat. Drake)
[05:27] 06. Timbaland - Tomorrow In The Bottle (feat. Chad Kroeger and Sebastian)
[04:27] 07. Timbaland - We Belong To The Music (feat. Miley Cyrus)
[03:51] 08. Timbaland - Morning After Dark (feat. Nelly Furtado and SoShy)
[04:52] 09. Timbaland - If We Hever Meet Again (feat. Katy Perry)
[04:44] 10. Timbaland - Can You Feel It (feat. Esthero and Sebastian)
[05:58] 11. Timbaland - Ease Off The Liquor
[04:21] 12. Timbaland - Undertow (feat. The Fray and Esthero)
[04:50] 13. Timbaland - Timothy Where You Been (feat. Jet)
[04:23] 14. Timbaland - Long Way Down (feat. Daughtry)
[04:11] 15. Timbaland - Marchin On (with OneRepublic) (Timbo Version)
[04:34] 16. Timbaland - The One I Love (feat. Keri Hilson and D.O.E.)
[04:21] 17. Timbaland - Symphony (feat. Attitude, BrandNu and D.O.E.)

"Отчет EAC" ▼
Text
Exact Audio Copy V0.99 prebeta 4 from 23. January 2008

EAC extraction logfile from 5. December 2009, 21:25

Timbaland / Shock Value II

Used drive : HL-DT-STDVDRRW GSA-H30L Adapter: 0 ID: 1

Read mode : Secure
Utilize accurate stream : Yes
Defeat audio cache : Yes
Make use of C2 pointers : No

Read offset correction : 102
Overread into Lead-In and Lead-Out : No
Fill up missing offset samples with silence : Yes
Delete leading and trailing silent blocks : No
Null samples used in CRC calculations : Yes
Used interface : Native Win32 interface for Win NT & 2000
Gap handling : Appended to previous track

Used output format : User Defined Encoder
Selected bitrate : 128 kBit/s
Quality : High
Add ID3 tag : No
Command line compressor : C:Program FilesFLACflac.exe
Additional command line options : -V -8 -T "artist=%a" -T "title=%t" -T "album=%g" -T "date=%y" -T "tracknumber=%n" -T "genre=%m" %s

Track 1

Filename C:1 Intro by DJ Felli Fell.wav

Pre-gap length 0:00:02.00

Peak level 100.0 %
Track quality 100.0 %
Test CRC 32C35BFA
Copy CRC 32C35BFA
Copy OK

Track 2

Filename C:2 Carry Out (feat. Justin Timberlake).wav

Peak level 99.9 %
Track quality 100.0 %
Test CRC 8A597994
Copy CRC 8A597994
Copy OK

Track 3

Filename C:3 Lose Control (feat. JoJo).wav

Peak level 99.9 %
Track quality 100.0 %
Test CRC 1F9A9EAE
Copy CRC 1F9A9EAE
Copy OK

Track&n
e3c897c595b9e511f29085f727498682f1fa8b83(2009) Timbaland / Shock Value II (Hip-Hop / RnB) [FLAC (tracks+.cue), lossless] (2009) Timbaland / Shock Value II (Hip-Hop / RnB) [FLAC (tracks+.cue), lossless] " />

Аплоадер: Админ, дата: 16-07-2011, 16:45, торрент скачан: 359 раз

Понравилась раздача? Посмотрите эти:
  • (2011) Timbaland / Thursdays (Hip-Hop R&B Pop) [Mp3, 192-320/CBR]
  • (Дискография, 1997-2009) Timbaland (Hip Hop, R&B) [MP3, 320/CBR]
  • (2009) The Black Eyed Peas / The E.N.D. (The Energy Never Dies) (Target Del ...
  • (2008) Karunesh /Enlightenment (New Age) [FLAC (image+.cue), lossless]
  • (2011) Orjan Nilsen / In My Opinion (Trance) [FLAC (tracks+.cue), lossless] ...
  • (2011) Lil Wayne / Tha Carter IV (Rap, Hip-Hop) [FLAC (tracks+.cue), loss ...
  • (2002) PPK (ППК) / ReLoad. Russian Trance (Trance) [FLAC (tracks+cue), loss ...
  • (1988) David Grisman Quintet feat. Svend Asmussen / Svingin With Svend (Jaz ...
  • (2009) Timbaland Presents / Shock Value II (Advance) (R&B) (mp3, 201 - ...
  • (2009) Timbaland / Shock Value II (Hip-Hop / RnB) [Mp3/320kbps CBR]
  • (2012) High Contrast / The Agony & The Ecstasy (Drum and Bass) [FLAC (track ...
  • (2006) The Rasmus / Shot (Single) (Alternative Rock) [FLAC (tracks+.cue), l ...
  • Justin Timberlake feat T.I & Timbaland / My Love [2009, Pop, DVDRip]
  • (2010) [AMATORY] / Инстинкт обречённых (Nu Metal) [FLAC (tracks), lossless] ...
  • (2011) Linkin Park / Iridescent (Alternative Rock) [FLAC(image+.cue), lossl ...
  • (2011) This Will Destroy You / Tunnel Blanket (Post Rock) [FLAC (tracks+.cu ...
  • (2004) Дельфин / Запись концерта 19.11.04 (Alternative|Experimental) [FLAC ...
  • (Дискография, 2002 - 2012) Rodrigo y Gabriela (Acoustic, Flamenco, Classica ...
  • (2012) KoRn feat. Skrillex / Chaos Lives In Everything (UK Promo) (Nu-metal ...
  • (2011) Ink Stained Promises / Relations. (Metalcore, Hardcore) [FLAC (track ...
  • Информация
    Посетители, находящиеся в группе Гости, не могут оставлять комментарии к данной публикации.