вход на сайт

Имя пользователя :
Пароль :

Восстановление пароля Регистрация
(2011) Chris Brown / F.A.M.E. (Deluxe Edition) (R&B) [FLAC (tracks+.cue), lossless]
Рейтинг:
(голосов: 1)



[img]{THEME}/images/logopost.png[/img]



Исполнитель: Chris Brown
Альбом: F.A.M.E. (Deluxe Edition)
Тип альбома: Студийный
Год выпуска: 2011
Жанр: R&B
Формат: FLAC (tracks+.cue)
Битрейт: lossless
Продолжительность: 01:12:15

Tреклист:

01. Deuces (Ft. Tyga & Kevin McCall) [00:04:36]
02. Up To You [00:04:07]
03. No BS (Ft. Kevin McCall) [00:04:07]
04. Look At Me Now (Ft. Lil Wayne & Busta Rhymes) [00:03:42]
05. She Aint You [00:04:08]
06. Say It With Me [00:03:01]
07. Yeah 3X [00:04:01]
08. Next To You (Ft. Justin Bieber) [00:04:25]
09. All Back [00:04:26]
10. Wet The Bed (Ft. Ludacris) [00:04:26]
11. Oh My Love [00:04:44]
12. Shouldve Kissed You [00:04:24]
13. Beautiful People (Ft. Benny Benassi) [00:03:46]
14. Bomb (Ft. Wiz Khalifa) [00:03:33]
15. Love The Girls (Ft. Game) [00:03:11]
16. Paper, Scissors, Rock (Ft. Timbaland & Big Sean) [00:03:46]
17. Beg For It [00:03:44]
18. Champion (Chipmunk Ft. Chris brown, Additional Track) [00:03:57]


Отчет EAC

Text
Exact Audio Copy V0.99 prebeta 5 from 4. May 2009

EAC extraction logfile from 18. March 2011, 15:41

Chris Brown / F.A.M.E (Deluxe Edition)

Used drive : Optiarc DVD+-RW AD-7640S Adapter: 0 ID: 1

Read mode : Secure
Utilize accurate stream : Yes
Defeat audio cache : Yes
Make use of C2 pointers : No

Read offset correction : 6
Overread into Lead-In and Lead-Out : No
Fill up missing offset samples with silence : Yes
Delete leading and trailing silent blocks : No
Null samples used in CRC calculations : Yes
Used interface : Native Win32 interface for Win NT & 2000
Gap handling : Appended to previous track

Used output format : User Defined Encoder
Selected bitrate : 192 kBit/s
Quality : High
Add ID3 tag : No
Command line compressor : C:Program FilesExact Audio CopyFlacflac.exe
Additional command line options : -V -8 -T "artist=%a" -T "title=%t" -T "album=%g" -T "date=%y" -T "tracknumber=%n" -T "genre=%m" %s


TOC of the extracted CD

Track | Start | Length | Start sector | End sector
---------------------------------------------------------
1 | 0:00.00 | 4:36.42 | 0 | 20741
2 | 4:36.42 | 4:07.72 | 20742 | 39338
3 | 8:44.39 | 4:07.70 | 39339 | 57933
4 | 12:52.34 | 3:42.44 | 57934 | 74627
5 | 16:35.03 | 4:08.08 | 74628 | 93235
6 | 20:43.11 | 3:01.63 | 93236 | 106873
7 | 23:44.74 | 4:01.50 | 106874 | 124998
8 | 27:46.49 | 4:25.
f380ebe9bb3905c093a16fff60967b8fd7fca4f9(2011) Chris Brown / F.A.M.E. (Deluxe Edition) (R&B) [FLAC (tracks+.cue), lossless] (2011) Chris Brown / F.A.M.E. (Deluxe Edition) (R&B) [FLAC (tracks+.cue), lossless] " />

Аплоадер: Админ, дата: 13-07-2011, 22:50, торрент скачан: 359 раз

Понравилась раздача? Посмотрите эти:
  • (2013) Paul McCartney / New (Deluxe Edition) (Rock) [FLAC (image,+.cue), lo ...
  • (2013) Hans Zimmer / Человек из стали / Man Of Steel [Deluxe Edition] (2 CD ...
  • (2013) A$AP Rocky | Long. Live. ASAP (Deluxe Edition) (Rap|Hip-Hop) [FLAC ( ...
  • (2013) Tyga / Hotel California (Deluxe Edition) (Hip-Hop) [FLAC (tracks+.c ...
  • (2013) Bon Jovi / What About Now (Deluxe Edition) (Hard Rock) [FLAC (tracks ...
  • (2011) Chris Brown / F.A.M.E. (Deluxe Edition)(Rap) [Mp3, 320kbps/CBR]
  • (2010) Zaz / Zaz (Nu jazz, Chanson, Soul) [FLAC (tracks+.cue), lossless]
  • (2011) Daughtry / Break the Spell (Deluxe Edition) (Alt. Rock / Modern Rock ...
  • (2011) Foster the People / Torches [Best Buy Exclusive Edition] (Indie / El ...
  • (2011) Виктория - победительница / Victorious (OST) [FLAC (tracks+.cue), lo ...
  • (2011) B.B. King / Icon (Blues) [FLAC (tracks+.cue), lossless]
  • (2012) Amy MacDonald / Life In A Beautiful Light (Deluxe Edition) (Acoustic ...
  • (2011) Lil Wayne / Tha Carter IV (Target Deluxe Edition) (Hip-Hop) [FLAC (t ...
  • (2011) Chris Brown | F.A.M.E (Deluxe Edition) (Hip-Hop|R&B) [MP3,320|CBR]
  • (2011) Ляпис Трубецкой / Веселые картинки (Rock) [FLAC (tracks+.cue), lossl ...
  • (2011) Ленинград / Хна (Rock) [FLAC (tracks+.cue), lossless]
  • (2011) Downhere / On The Altar Of Love (Alternative Rock/Christian Rock) [F ...
  • (2012) Soulfly / Enslaved [Deluxe Edition] (Groove Metal/Thrash Metal) [FLA ...
  • (2011) Phinehas / Thegodmachine (Metalcore) [FLAC (tracks+.cue), lossless]
  • (2012) Schiller / Sonne (3 CD) (Limited Ultra Deluxe Edition) (Ambient/Chil ...
  • Информация
    Посетители, находящиеся в группе Гости, не могут оставлять комментарии к данной публикации.