вход на сайт

Имя пользователя :
Пароль :

Восстановление пароля Регистрация
(2010) Ne-Yo / Libra Scale (Japanese Edition) (RnB) [FLAC (tracks+.cue) lossless]
Рейтинг:
(голосов: 1)



[img]{THEME}/images/logopost.png[/img]



Исполнитель: Ne-Yo
Альбом: Libra Scale
Тип альбома: Студийный (LP)
Год выпуска: 2010
Жанр: RnB, Pop
Формат: FLAC (tracks+.cue)
Битрейт: lossless
Продолжительность: 00:45:02

Tреклист:
01. Champagne Life 5:23
02. Makin A Movie 3:52
03. Know Your Name 4:07
04. Telekinesis 4:22
05. Crazy Love Ft. Fabolous 3:50
06. One In A Million 4:03
07. Genuine Only 3:56
08. Cause I Said So 3:49
09. Beautiful Monster 4:11
10. What Have I Done 3:51
11.Beautiful Monster (Tony Moran Edit) 4:32

"Отчет EAC" ▼Exact Audio Copy V0.99 prebeta 5 from 4. May 2009
EAC extraction logfile from 28. October 2010, 23:33
Ne-Yo / Libra Scale [Japanese Edition]
Used drive: PIONEER DVD-RWDVR-217L Adapter: 4ID: 0
Read mode : Secure
Utilize accurate stream : Yes
Defeat audio cache: Yes
Make use of C2 pointers : No
Read offset correction: 96
Overread into Lead-In and Lead-Out: No
Fill up missing offset samples with silence : Yes
Delete leading and trailing silent blocks : No
Null samples used in CRC calculations : Yes
Used interface: Native Win32 interface for Win NT & 2000
Gap handling: Appended to previous track
Used output format: User Defined Encoder
Selected bitrate: 192 kBit/s
Quality : High
Add ID3 tag : No
Command line compressor : E:Program FilesExact Audio CopyFLACFLAC.EXE
Additional command line options : -V -8 -T "artist=%a" -T "title=%t" -T "album=%g" -T "date=%y" -T "tracknumber=%n" -T "genre=%m" %s
TOC of the extracted CD
Track | Start|Length| Start sector | End sector
---------------------------------------------------------
1|0:00.00 |5:23.70 | 0|24294
2|5:23.70 |3:52.23 | 24295|41717
3|9:16.18 |4:07.45 | 41718|60287
4| 13:23.63 |4:22.50 | 60288|79987
5| 17:46.38 |3:50.43 | 79988|97280
6| 21:37.06 |4:03
6ce85c20e57239998ffc8565ef2d8b445b49de68(2010) Ne-Yo / Libra Scale (Japanese Edition) (RnB) [FLAC (tracks+.cue) lossless] (2010) Ne-Yo / Libra Scale (Japanese Edition) (RnB) [FLAC (tracks+.cue) lossless] " />

Аплоадер: Админ, дата: 29-10-2010, 18:55, торрент скачан: 359 раз

Понравилась раздача? Посмотрите эти:
Информация
Посетители, находящиеся в группе Гости, не могут оставлять комментарии к данной публикации.