вход на сайт

Имя пользователя :
Пароль :

Восстановление пароля Регистрация
(2006) Timati / Black Star (R&B) [(APE+.cue), lossless]
Рейтинг:
(голосов: 1)



[img]{THEME}/images/logopost.png[/img]



Исполнитель: Timati
Альбом: Black Star
Тип альбома: Студийный (LP)
Год выпуска: 2006
Жанр: R&B
Формат: APE+.сue
Битрейт: lossless
Продолжительность: 01:17:29

Tреклист:
1. Intro (01:07)
2. В клубе [feat. DJ Dlee] (04:26)
3. Жара [feat. Nasty & Федор Бондарчук] (04:17)
4. Жизнь - Игра [feat. Дмитрий Климашенко] (06:06)
5. Zombie (03:59)
6. Потанцуй [feat. Ксения Собчак] (04:32)
7. Детка (04:22)
8. Не сходи с ума (03:42)
9. Мой путь [feat. Ratmir] (04:56)
10. Black Star [feat. Карина Кокс & Игорь Крутой] (04:54)
11. Снова один [feat. Ирина Дубцова] (04:37)
12. Дождись [feat. Uma2rman] (04:13)
13. Вопросы (04:23)
14. Когда ты рядом [feat. Алекса] (04:26)
15. Сны [feat. Ratmir] (04:00)
16. Опасные связи [feat. Ratmir] (03:54)
17. Откровение [feat. Доминик Jocker Бреславский] (04:50)
18. Я и ты [feat. Карина Кокс] (04:45)

Отчет EAC:
▼Exact Audio Copy V0.99 prebeta 5 from 4. May 2009
Отчёт EAC об извлечении, выполненном 6. июля 2010, 15:11
Тимати / Black Star
Дисковод: TSSTcorp CDDVDRW SH-223F Adapter: 5 ID: 0
Режим чтения : Достоверность
Использование точного потока : Да
Отключение кэша аудио : Да
Использование указателей C2 : Нет
Коррекция смещения при чтении : 6
Способность читать области Lead-in и Lead-out : Нет
Заполнение пропущенных сэмплов тишиной : Да
Удаление блоков с тишиной в начале и конце : Нет
При вычислениях CRC использовались нулевые сэмплы : Да
Интерфейс : Встроенный Win32-интерфейс для Win NT/2000
Выходной формат : Внутренние WAV-операции
Формат сэмплов : 44.100 Гц; 16 бит; стерео
TOC извлечённого CD
Трек | Старт | Длительность | Начальный сектор | Конечный сектор
---------------------------------------------------------------------
1 | 0:00.00 | 1:07.72 | 0 | 5096
2 | 1:07.72 | 4:25.71 | 5097 | 25042
3 | 5:33.68 | 4:17.06 | 25043 | 44323
4 | 9:50.74 | 6:05.69 | 44324 | 71767
5 | 15:56.68 | 3:58.14 | 71768 | 89631
6 | 19:55.07 | 4:32.18 | 89632 | 110049
7 | 24:27.25 | 4:21.58 | 110050 | 129682
8 | 28:49.08 | 3:42.10 | 129683 | 146342
9 | 32:31.18 | 4:55.60 | 146343 | 168527
10 | 37:27.03 | 4:54.03 | 168528 | 190580
11 | 42:21.06 | 4:37.64 | 190581 | 211419
12 | 46:58.70 | 4:12.24 | 211420 | 230343
13 | 51:11.19 | 4:23.40 | 230344 | 250108
14 | 55:34.59 | 4:25.26 | 250109 | 270009
15 | 60:00.10 | 4:00.33 | 270010 | 288042
16 | 64:00.43 | 3:54.06 | 288043 | 305598
17 | 67:54.49 | 4:49.67 | 305599 | 327340
18 | 72:44.41 | 4:45.08 | 327341 | 348723
Характеристики диапазона извлечения и сообщения об ошибках
Выбранный диапазон
Имя файла D:Тимати - Black Star.wav
Пиковый уровень 98.3 %
Качество диапазона 100.0 %
CRC копии 7F41F256
Копирование... OK
Ошибок не произошло
AccurateRip: сводка
Трек 1 точное извлечение (доверие 3) [973C113D]
Трек 2 точное извлечение (доверие 3) [6A1A725B]
Трек 3 точное извлечение (доверие 3) [D31ACA73]
Трек 4 точное извлечение (доверие 3) [D7D7F289]
Трек 5 точное извлечение (доверие 3) [474B6129]
Трек 6 точное извлечение (доверие 3) [6789483D]
Трек 7 точное извлечение (доверие 3) [1CE3A4FF]
Трек 8 точное извлечение (доверие 3) [AC6D5745]
Трек 9 точное извлечение (доверие 3) [5BAF7310]
Трек 10 точное извлечение (доверие 3) [1CFF9139]
Трек 11 точное извлечение (доверие 3) [EFCE0EAB]
Трек 12 точное извлечение (доверие 3) [33D08B80]
Трек 13 точное извлечение (доверие 3) [3863034B]
Трек 14 точное извлечение (доверие 3) [18C75E2C]
Трек 15 точное извлечение (доверие 3) [F8956E50]
Трек 16 точное извлечение (доверие 3) [54507CC2]
Трек 17 точное извлечение (доверие 3) [13FB4F5F]
Трек 18 точное извлечение (доверие 3) [C351FB6D]
Все треки извлечены точно
Конец отчёта

Отчет ABC:

------------------------------------------------------
Filename: Тимати - Black Star.ape (511.10mb)
Source: CDDA (probability 100%)
Detect Mode : 8
Date: 08.07.2010 10-08-43
---------------
c51463d8348de1915af8d313abd2e4e6716fe086(2006) Timati / Black Star (R&B) [(APE+.cue), lossless] (2006) Timati / Black Star (R&B) [(APE+.cue), lossless] " />

Аплоадер: Админ, дата: 6-07-2010, 15:15, торрент скачан: 359 раз

Понравилась раздача? Посмотрите эти:
  • (Дискография, 2006 - 2012) Тимати (RnB) [MP3, 320/CBR]
  • (2010) 140 Ударов в минуту / Безопасное извлечение (Рор) [mp3, 320/CBR]
  • (2007) Morandi / N3xt (Pop) [APE, (image + .cue), lossless]
  • (2010) Баста / Баста 3 (Rap) [APE (image+.cue), lossless]
  • (2010) Хамиль и Змей (Каста) / ХЗ (Rap) [APE(image+.cue), lossless]
  • (2010) Noize MC / Последний Альбом (Rap) [APE(image+.cue), lossless]
  • (2010) Смоки МО / Выход Из Темноты (Rap) [APE (image+ cue), lossless]
  • (2010) ДаБац (Da Budz) / Вершки Да Корешки(Rap) [APE (image+.cue), lossless ...
  • (2008) Amaral / Gato negro Dragon rojo (Latin rock, alternative rock) [Flac ...
  • (1999,2000) Led Zeppelin / The Best Of (2CD) (Hard Rock) [Flac(image+.cue)l ...
  • (Дискография) Chris Isaak (Blues Rock/Southern Rock/Pop Rock) [APE/FLAC (im ...
  • (Дискография, 1986 - 1999) Crimson Glory (Progressive Heavy Metal) [FLAC (i ...
  • (2003) THE BLACK EYED PEAS / Elephunk (RnB) [Ape (image+.cue), lossless]
  • (2006) Тимати / Black Star (R&B) [MP3, 320/CBR]
  • (Официальная Дискография) Timati [3 CD] (R&B) [MP3, 320|CBR]
  • (2011) The Qemists / Soundsystem (Drum & Bass / Dubstep / Electronic) [FLAC ...
  • (2001, сборник) Технология — Лучшие песни (Поп) [FLAC, lossless]
  • (2002) ТАТУ - 200 по встречной (переиздание) (Pop) [lossless FLAC (image +. ...
  • (2007) ЛАСКОВЫЙ МАЙ - Лучшие Песни. Твоя Коллекция (2CD) (Pop) [FLAC (image ...
  • (2009) Guf / Дома (Rap) [APE (image+.cue)]
  • (2010, сборник) RАЙ / Black Star party (Пашу - 27!) promo mix by DJ Miller ...
  • (2009) Земфира / Z-Sides (Rock) [FLAC(image+.cue), lossless ]
  • (2006) Би-2 / Лучшие песни (Rock) [FLAC (image+.cue), lossless]
  • (1986) Dark Angel / Darkness Descends (Thrash Metal) [FLAC (image+.cue), lo ...
  • (1995) Steve Morse Band / Structural Damage (Instrumental Rock/Blues Rock/J ...
  • Информация
    Посетители, находящиеся в группе Гости, не могут оставлять комментарии к данной публикации.