вход на сайт

Имя пользователя :
Пароль :

Восстановление пароля Регистрация
(2009) Rihanna / Rated R (R`n`B) [APE (image+.cue)]
Рейтинг:
(голосов: 1)



[img]{THEME}/images/logopost.png[/img]



Исполнитель: Rihanna
Альбом: Rated R
Тип альбома: Студийный
Год выпуска: 2009
Жанр: R`n`B
Формат: APE (image+.cue)
Битрейт: lossless
Продолжительность: 00:51:55

Трэклист:
[01:34] 01. Rihanna - Mad House
[03:47] 02. Rihanna - Wait Your Turn
[04:10] 03. Rihanna - Hard ft. Jezzy
[04:02] 04. Rihanna - Stupid In Love
[03:58] 05. Rihanna - Rockstar 101 ft. Slash
[03:48] 06. Rihanna - Russian Roulette
[04:18] 07. Rihanna - Fire Bomb
[03:43] 08. Rihanna - Rude Boy
[04:46] 09. Rihanna - Photographs ft. Will.I.Am
[04:00] 10. Rihanna - G4L
[03:28] 11. Rihanna - Te Amo
[06:05] 12. Rihanna - Cold Case Love
[04:16] 13. Rihanna - The Last Song

Отчет EAC:▼Exact Audio Copy V0.99 prebeta 4 from 23. January 2008

Отчёт EAC об извлечении, выполненном 23. ноября 2009, 17:18

Rihanna / Rated R

Дисковод: Optiarc DVD RW AD-7170A Adapter: 3ID: 0

Режим чтения : Достоверность
Использование точного потока : Да
Отключение кэша аудио: Да
Использование указателей C2: Нет

Коррекция смещения при чтении : 48
Способность читать области Lead-in и Lead-out : Нет
Заполнение пропущенных сэмплов тишиной: Да
Удаление блоков с тишиной в начале и конце: Нет
При вычислениях CRC использовались нулевые сэмплы : Да
Интерфейс : Установленный внешний ASPI-интерфейс

Выходной формат : Внутренние WAV-операции
Формат сэмплов: 44.100 Гц; 16 бит; стерео


TOC извлечённого CD

Трек | Старт| Длительность | Начальный сектор | Конечный сектор
---------------------------------------------------------------------
1|0:00.00 |1:34.36 | 0| 7085
2|1:34.36 |3:46.42 |7086|24077
3|5:21.03 |4:10.45 | 24078|42872
4|9:31.48 |4:01.33 | 42873|60980
5| 13:33.06 |3:58.67 | 60981|78897
6| 17:31.73 |3:47.40 | 78898|95962
fc6de50a5c17d7e54407e928270e4d810ea00879(2009) Rihanna / Rated R (R`n`B) [APE (image+.cue)] (2009) Rihanna / Rated R (R`n`B) [APE (image+.cue)] " />

Аплоадер: Админ, дата: 1-04-2010, 21:20, торрент скачан: 359 раз

Понравилась раздача? Посмотрите эти:
Информация
Посетители, находящиеся в группе Гости, не могут оставлять комментарии к данной публикации.