вход на сайт

Имя пользователя :
Пароль :

Восстановление пароля Регистрация
(2009) CHRIS BROWN / Graffiti original (Deluxe Edition) + Bonus tracks (RnB/Pop) [FLAC (tracks+.cue) lossless]
Рейтинг:
(голосов: 1)



[img]{THEME}/images/logopost.png[/img]



Исполнитель: Chris Brown
Название альбома: Graffiti
Жанр: R&B
Год выпуска диска: 2009
Производитель диска: USA
Тип альбома: Официальный
Аудио кодек: FLAC
Тип рипа: tracks+.cue
Битрейт аудио: lossless
Продолжительность: 01:22:29

Трэклист:
▼(3:48) 01. I Can Transform Ya (featuring Lil Wayne & Swizz Beatz)
(4:15) 02. Sing Like Me
(3:56) 03. Crawl
(3:38) 04. So Cold
(4:00) 05. What I Do
(3:39) 06. Famous Girl
(4:38) 07. Take My Time
(3:08) 08. I.Y.A
(3:53) 09. Pass Out (featuring Eva Simons)
(4:30) 10. Wait (featuring Trey Songz & Game)
(5:10) 11. Lucky Me
(4:11) 12. Fallin Down
(3:05) 13. Ill Go
(4:08) 14. Girlfriend (featuring Lupe Fiasco)

Bonus Tracks:
(3:16) 15. Gotta Be Ur Man
(3:45) 16. For Ur Love
(4:20) 17. I Need This
(3:02) 18. I Love U
(4:13) 19. Brown Skin Girl (feat. Sean Paul)
(3:21) 20. Chase Our Love

EAC:
▼Exact Audio Copy V0.99 prebeta 5 from 4. May 2009

EAC extraction logfile from 7. December 2009, 3:45

Chris Brown / Graffiti

Used drive : ASUS DRW-1814BL Adapter: 3 ID: 1

Read mode : Secure
Utilize accurate stream : Yes
Defeat audio cache : Yes
Make use of C2 pointers : No

Read offset correction : 6
Overread into Lead-In and Lead-Out : No
Fill up missing offset samples with silence : Yes
Delete leading and trailing silent blocks : No
Null samples used in CRC calculations : Yes
Used interface : Native Win32 interface for Win NT & 2000
Gap handling : Appended to previous track

Used output format : User Defined Encoder
Selected bitrate : 1024 kBit/s
Quality : High
Add ID3 tag : No
Command line compressor : C:Program FilesExact Audio CopyFLACFLAC.EXE
Additional command line options : -V -8 -T "ARTIST=%a" -T "TITLE=%t" -T "ALBUM=%g" -T "DATE=%y" -T "TRACKNUMBER=%n" -T "GENRE=%m" -T "COMMENT=%e" %s -o %d

TOC of the extracted CD

Track | Start | Length | Start sector | End sector
---------------------------------------------------------
1 | 0:00.00 | 3:48.48 | 0 | 17147
2 | 3:48.48 | 4:15.20 | 17148 | 36292
3 | 8:03.68 | 3:56.19 | 36293 | 54011
4 | 12:00.12 | 3:38.64 | 54012 | 70425
5 | 15:39.01 | 4:00.18 | 70426 | 88443
6 | 19:39.19 | 3:39.25 | 88444 | 104893
7 | 23:18.44 | 4:38.57 | 104894 | 125800
8 | 27:57.26 | 3:08.67 | 125801 | 139967
9 | 31:06.18 | 3:53.03 | 139968 | 157445
10 | 34:59.21 | 4:30.04 | 157446 | 177699
11 | 39:29.25 | 5:10.39 | 177700 | 200988
12 | 44:39.64 | 4:11.41 | 200989 | 219854
13 | 48:51.30 | 3:05.12 | 219855 | 233741
14 | 51:56.42 | 4:08.27 | 233742 | 252368
15 | 56:04.69 | 3:16.14 | 252369 | 267082
16 | 59:21.08 | 3:45.47 | 267083 | 284004
17 | 63:06.55 | 4:20.73 | 284005 | 303577
18 | 67:27.53 | 3:02.17 | 303578 | 317244
19 | 70:29.70 | 4:13.70 | 317245 | 336289
20 | 74:43.65 | 3:21.24 | 336290 | 351388

Track 1

Filename C:EasyMy --FLAC-- StuffsChris Brown - Graffiti 2009 --FLAC-- [Cov+CD]1. I Can Transform Ya ft. Lil Wayne & Swizz Beats - Chris Brown.wav

Pre-gap length 0:00:02.00

Peak level 100.0 %
Track quality 100.0 %
Test CRC 389A8A48
Copy CRC 389A8A48
Track not present in AccurateRip database
Copy OK

Track 2

Filename C:EasyMy --FLAC-- StuffsChris Brown - Graffiti 2009 --FLAC-- [Cov+CD]2. Sing Like Me - Chris Brown.wav

Peak level 98.8 %
Track quality 100.0 %
Test CRC 8413C3D4
Copy CRC 8413C3D4
Track not present in AccurateRip database
Copy OK

Track 3

Filename C:EasyMy --FLAC-- StuffsChris Brown - Graffiti 2009 --FLAC-- [Cov+CD]3. Crawl - Chris Brown.wav

Peak level 100.0 %
Track quality 100.0 %
Test CRC CAEC13D3
Copy CRC CAEC13D3
Track not present in AccurateRip database
Copy OK

Track 4

Filename C:EasyMy --FLAC-- StuffsChris Brown - Graffiti 2009 --FLAC-- [Cov+CD]4. So Cold - Chris Brown.wav

Peak level 100.0 %
Track quality 100.0 %
Test CRC 5C67FB24
Copy CRC 5C67FB24
Track not present in AccurateRip database
Copy OK

Track 5

Filename C:EasyMy --FLAC-- StuffsChris Brown - Graffiti 2009
409e441fd1bb530828309a64906c5caf0dc8ef3c(2009) CHRIS BROWN / Graffiti original (Deluxe Edition) + Bonus tracks (RnB/Pop) [FLAC (tracks+.cue) lossless] (2009) CHRIS BROWN / Graffiti original (Deluxe Edition) + Bonus tracks (RnB/Pop) [FLAC (tracks+.cue) lossless] " />

Аплоадер: Админ, дата: 14-01-2010, 21:44, торрент скачан: 359 раз

Понравилась раздача? Посмотрите эти:
  • (2011) Chris Brown / F.A.M.E. (Deluxe Edition)(Rap) [Mp3, 320kbps/CBR]
  • (1991) James Brown - 20 All-Time Greatest Hits![FLAC (tracks+.cue) lossless ...
  • (Дискография) 1981-2009 Depeche Mode (Electronic, Synthpop) [FLAC (tracks+ ...
  • (2009) The Black Eyed Peas / The E.N.D. (The Energy Never Dies) (Target Del ...
  • (2009) ONE REPUBLIC / Waking Up (Pop-Rock/Alternative) [FLAC (tracks+.cue) ...
  • (2009) SHAKIRA / She Wolf (US Edition) (Pop) [Flac (tracks+.cue), lossless] ...
  • (Дискография) GORILLAZ (Trip-Hop) [FLAC (tracks + .cue) lossless]
  • (2010) Eminem / Recovery (Rap / Hip-Hop) [FLAC (tracks+.cue) lossless]
  • (2009) Michael Jackson / The Stripped Mixes (POP) [Flac / Tracks + .cue]
  • (2006) DMX / Year Of The Dog...Again (EU) (Rap) [FLAC (tracks)]
  • (2011) Orjan Nilsen / In My Opinion (Trance) [FLAC (tracks+.cue), lossless] ...
  • (2002) PPK (ППК) / ReLoad. Russian Trance (Trance) [FLAC (tracks+cue), loss ...
  • (2010, сборник) VA / CDeelder Box (Swing) [FLAC (tracks+.cue), lossless]
  • (2010) Ravenna / Debrief (Alt. Rock / Christian Rock / Indie) [FLAC (tracks ...
  • (1991, 4xCD Box Set) James Brown / Star Time (Funk, Soul, Blues, Disco) [FL ...
  • (2010) Rihanna / Loud (R&B) [FLAC (tracks+.cue), lossless]
  • (2011) Chris Brown / F.A.M.E. (Deluxe Edition) (R&B) [FLAC (tracks+.cue), l ...
  • (2006) The Rasmus / Shot (Single) (Alternative Rock) [FLAC (tracks+.cue), l ...
  • (2008) Miley Cyrus - Breakout (Platinum Edition) (Pop) [FLAC (tracks+.cue), ...
  • (2009) Miley Cyrus / The Time of Our Lives (Pop) [FLAC (tracks+.cue), lossl ...
  • (2011) Pitbull / Planet Pit (Deluxe Edition) (Hip Hop/Electronic) [FLAC (tr ...
  • (2011) Linkin Park / Iridescent (Alternative Rock) [FLAC(image+.cue), lossl ...
  • (2011) This Will Destroy You / Tunnel Blanket (Post Rock) [FLAC (tracks+.cu ...
  • (2009) Exivious (Ex. Cynic) / Exivious (Progressive Metal/Death Metal) [FLA ...
  • (2011) Ink Stained Promises / Relations. (Metalcore, Hardcore) [FLAC (track ...
  • Информация
    Посетители, находящиеся в группе Гости, не могут оставлять комментарии к данной публикации.