вход на сайт

Имя пользователя :
Пароль :

Восстановление пароля Регистрация
(2003) THE BLACK EYED PEAS / Elephunk (RnB) [Ape (image+.cue), lossless]
Рейтинг:
(голосов: 1)



[img]{THEME}/images/logopost.png[/img]



Исполнитель: The Black Eyed Peas
Альбом: Elephunk
Тип альбома: ОФициальный альбом
Год выпуска: 2003
Жанр: RnB
Аудио кодек: Ape
Формат: Ape (image+.cue)
Битрейт: lossless ~900 kbps
Продолжительность: 00:55:54

Tреклист:
01. Hands Up (3:35)
02. Labor Day (Its a Holiday) (3:58)
03. Lets Get Retarded (3:35)
04. Hey Mama (3:34)
05. Shut Up (4:56)
06. Smells Like Funk (5:04)
07. Latin Girls (6:17)
08. Sexy (4:43)
09. Fly Away (3:35)
10. The Boogie That Be (5:12)
11. The APL Song (2:54)
12. Anxiety (3:38)
13. Where Is The Love (4:46)
14. Third Eye (3:44)

Отчет EAC
▼ Exact Audio Copy V0.99 prebeta 5 from 4. May 2009

Отчёт EAC об извлечении, выполненном 25. июня 2009, 22:48

The Black Eyed Peas / Elephunk

Дисковод: HL-DT-STDVD-RAM GSA-H55L Adapter: 4ID: 2

Режим чтения : Достоверность
Использование точного потока : Да
Отключение кэша аудио: Да
Использование указателей C2: Нет

Коррекция смещения при чтении : 667
Способность читать области Lead-in и Lead-out : Нет
Заполнение пропущенных сэмплов тишиной: Да
Удаление блоков с тишиной в начале и конце: Нет
При вычислениях CRC использовались нулевые сэмплы : Да
Интерфейс : Встроенный Win32-интерфейс для Win NT/2000

Выходной формат : Внутренние WAV-операции
Формат сэмплов: 44.100 Гц; 16 бит; стерео

TOC извлечённого CD

Трек | Старт| Длительность | Начальный сектор | Конечный сектор
---------------------------------------------------------------------
1|0:00.00 |3:35.62 | 0|16186
2|3:35.62 |3:58.55 | 16187|34091
3|7:34.42 |3:35.69 | 34092|50285
4| 11:10.36 |3:34.67 | 50286|66402
5| 14:45.28 |4:56.14 | 66403|88616
6| 19:41.42 |5:04.56 | 88617| 111472
7| 24:46.23 |6:17.66 |111473| 139813
8| 31:04.14 |4:43.38
d0b71507b64ade8990f37541c75d8bb740747a78(2003) THE BLACK EYED PEAS / Elephunk (RnB) [Ape (image+.cue), lossless] (2003) THE BLACK EYED PEAS / Elephunk (RnB) [Ape (image+.cue), lossless] " />

Аплоадер: Админ, дата: 15-12-2009, 20:23, торрент скачан: 359 раз

Понравилась раздача? Посмотрите эти:
  • (2000) Lenny Kravitz / Greatest Hits (Rock, Funk) [FLAC (image+.cue), lossl ...
  • (дискография, 1983-2008) MADONNA (pop / dance) [WavPack (image+.cue) lossle ...
  • (2000) Tic Tac Toe / Ist der Ruf erst ruiniert... (Rap,Hip-hop) [Lossless, ...
  • (2008) НоГГано / Первый (Rap) [APE(image+cue), lossless]
  • (1994) Joy / Grand Collection (EuroDisco) [FLAC (image+.cue) lossless]
  • (2007) Morandi / N3xt (Pop) [APE, (image + .cue), lossless]
  • (2010) Баста / Баста 3 (Rap) [APE (image+.cue), lossless]
  • (2010) ST1M / Октябрь (Rap) [APE(image+.cue), lossless]
  • (2006) Батырхан Шукенов/ Отан Ана (Pop) [FLAC (image+.cue) lossless]
  • (2010) ДиДюЛя / Аромат (flamenco, instrumental, folk) [APE (image + .cue), ...
  • (1985) BABYS GANG / Challenger (Pop,Italo Disco) [APE(image+.cue)lossless] ...
  • (2010) ДаБац (Da Budz) / Вершки Да Корешки(Rap) [APE (image+.cue), lossless ...
  • (2005) плюм-Бум / Чистая правда (Funk, Reggae, Pop-Punk) [APE(image+.cue), ...
  • (2011) АукцЫон / Юла (Rock) [APE (image+.cue), lossless]
  • (2009) Rihanna / Rated R (R`n`B) [APE (image+.cue)]
  • (Дискография, 1998-2011) The Black Eyed Peas (Electro, Dance, R&B, Alternat ...
  • (Официальная Дискография) The Black Eyed Peas + Fergie + Will.I.Am + HQ Cov ...
  • ( 2001) Воскресение / Звездная коллекция (Rock) [FLAC (image+.cue) lossless ...
  • (1993) Любовь Успенская / Любимый (шансон) [APE (image+.cue), lossless]
  • (2010, сборник) RАЙ / Black Star party (Пашу - 27!) promo mix by DJ Miller ...
  • (2009) Челси / Точка возврата (Pop) [APE (image+.cue), lossless]
  • (2011) N1NT3NDO / N1NT3NDO (Rap) [APE (image+.сue), lossless]
  • (1995) Yaki-Da / Pride (Pop, Eurodance) [FLAC (image+.сue), lossless]
  • (2004) Ex-Сектор Газа / Огненный рай (Punk-Rock) [FLAC (image+.cue), lossle ...
  • (2008) Студия 80 / Придуманный Мир (Pop) [FLAC (image+.cue), lossless]
  • Информация
    Посетители, находящиеся в группе Гости, не могут оставлять комментарии к данной публикации.