вход на сайт

Имя пользователя :
Пароль :

Восстановление пароля Регистрация
(2012) Brick Bazuka / Слои (Rap) [FLAC (tracks+.cue), lossless]
Рейтинг:
(голосов: 1)



[img]{THEME}/images/logopost.png[/img]



Исполнитель: Brick Bazuka (The Chemodan Clan)
Страна: Россия, Петрозаводск
Альбом: Слои
Тип альбома: Студийный
Год выпуска: 2012
Жанр: Underground Rap, Hip-Hop
Аудиокодек: FLAC (*.flac)
Тип рипа: tracks+.cue
Битрейт: lossless
Log-файл: Присутствуют
Сканы: Присутствуют
Продолжительность: 00:50:40

Об издании: Brick Bazuka, представитель пертозаводского рэпа, выпустил свой первый альбом, который получил название "Слои". Такой продукт стоит скачать и послушать. В нём приняли участие Грязный Луи, Типси Тип, ОУ74 и другие исполнители. Сводил альбом Грязный Луи (the Chemodan).


Tреклист:
01. Интро[00:01:45]
02. Эфир[00:02:45]
03. Рифмотеррор (Ft. Грязный Луи & Pra)[00:03:52]
04. На Моменте (Скит)[00:01:27]
05. Крим (Ft. ОУ74)[00:04:08]
06. Близко[00:02:15]
07. Вавилон[00:03:07]
08. Странный Мир[00:03:00]
09. Лифт (Ft. Твёрдый Мики)[00:03:02]
10. Эйфория (Скит)[00:01:33]
11. Компакта (Ft. RaSta)[00:02:52]
12. В Голову (Ft. Грязный Луи)[00:02:27]
13. Не Все[00:02:52]
14. Вверх Ногами[00:02:44]
15. Цивилизация (Скит)[00:01:26]
16. Слои[00:02:58]
17. Не Кино (Ft. Типси Тип)[00:03:07]
18. Лондон (Ft. Страна OZ)[00:03:30]
19. аУтро[00:01:19]


Лог создания рипа ▼TextExact Audio Copy V1.0 beta 3 from 29. August 2011

Отчёт EAC об извлечении, выполненном 22. июля 2012, 21:28

Brick Bazuka / Слои

Дисковод: Optiarc DVD RW AD-7700S Adapter: 0 ID: 1

Режим чтения : Достоверность
Использование точного потока : Да
Отключение кэша аудио : Да
Использование указателей C2 : Нет

Коррекция смещения при чтении : 48
Способность читать области Lead-in и Lead-out : Нет
Заполнение пропущенных сэмплов тишиной : Да
Удаление блоков с тишиной в начале и конце : Нет
При вычислениях CRC использовались нулевые сэмплы : Да
Интерфейс : Встроенный Win32-интерфейс для Win NT/2000
Обработка зазоров : Добавлено к предыдущему треку

Выходной формат : Пользовательский кодировщик
Выбранный битрейт : 128 kBit/s
Качество : Высокий
Добавление ID3-тега : Нет
Утилита сжатия : C:Program Files (x86)Exact Audio CopyFlacflac.exe
Дополнительные параметры : -V -8 -T "Genre=%genre%" -T "Artist=%artist%" -T "Title=%title%" -T "Album=%albumtitle%" -T "Date=%year%" -T "Tracknumber=%tracknr%" -T "Comment=%comment%" %source%


TOC извлечённого CD

Трек | Старт | Длительность | Начальный сектор | Конечный сектор
---------------------------------------------------------------------
1 | 0:00.00 | 1:45.07 | 0 | 7881
2 | 1:45.07 | 2:45.07 | 7882 | 20263
3 | 4:30.14 | 3:52.34 | 20264 | 37697
4 | 8:22.48 | 1:27.21 | &nbs
87e640c711889cae1c3cf67003e702847ea9e8c6(2012) Brick Bazuka / Слои (Rap) [FLAC (tracks+.cue), lossless] (2012) Brick Bazuka / Слои (Rap) [FLAC (tracks+.cue), lossless] " />

Аплоадер: Админ, дата: 20-01-2013, 22:17, торрент скачан: 359 раз

Понравилась раздача? Посмотрите эти:
  • (2012) Sting / Fifteen Healing Bites (Pop Rock)(Chinese Dragon) [FLAC (trac ...
  • (2013) Linkin Park / Underground XIII (Alternative Rock) [FLAC (tracks+.cue ...
  • (2013) Ahimas / Алатан (Rap, Hip-Hop) [FLAC (Tracks+.Cue), Lossless]
  • (2013) Смоки Мо / Младший (Rap, Hip-Hop) [FLAC (Tracks+.Cue), Lossless]
  • (2013) Маклай и Ганза / Статус-Кво (Rap, Hip-Hop) [FLAC (Tracks+.Cue), Loss ...
  • (2013) Lone / Спутник (Rap, Hip-Hop) [FLAC (Tracks+.Cue), Lossless]
  • (2013) Стриж / Игристое (Rap, Hip-Hop) [FLAC (Tracks+.Cue), Lossless]
  • (2013) Баста / Баста 4 (Rap, Hip-Hop) [FLAC (Tracks+.Cue), Lossless]
  • (2013) Loc-Dog & Tony VA / Все знают всё (Rap, Hip-Hop) [FLAC (Tracks+.Cue ...
  • (1989) Fausto Papetti / Magic Sax [Vol. 2] (Instrumental) [FLAC (tracks+.cu ...
  • (2012) Рем Дигга / Черника (Rap) [FLAC (tracks+.cue), lossless]
  • (2012) Три Кита (Зануда, Gipsy King, Тато) / Три Кита (Rap) [FLAC (tracks+. ...
  • (2012) The Rasmus / The Rasmus (Alternative Rock/Melodic Rock) [FLAC (track ...
  • (1993) Mireille Mathieu / Chante Piaf (Pop) [FLAC (tracks+.cue), lossless]
  • (2011, Сборник) VA / The Worlds Greatest Ballads (3CD) (Pop) [FLAC (tracks+ ...
  • (2012) Guf / Сам И ... (Rap) [FLAC (tracks+.cue), lossless]
  • (2012) Адвайта / Не спать (Rap) [FLAC (tracks+.cue), lossless]
  • (2012) Триада / Мои глаза открыты (Rap) [FLAC (tracks+.cue), lossless]
  • (2012) KREC / Молча проще (Rap) [FLAC (tracks+.cue), lossless]
  • (2012) Птаха / Старые тайны (Rap) [FLAC (tracks+.cue), lossless]
  • (2012) Rammstein / Mein Herz brennt (Industrial, Tanz-Metal) [FLAC (tracks ...
  • (2011) Ассаи / ОМ (Rap) [FLAC (tracks+.cue), lossless]
  • (2012) Brick Bazuka (Chemodan Clan) / Слои (при уч. Грязный Луи, Типси Тип, ...
  • (2012) Ария / Live In Studio (Heavy Metal) [FLAC (image+.сue), lossless]
  • (2012) Словетский / Мозайка (Rap) [FLAC (tracks+.cue), lossless]
  • Информация
    Посетители, находящиеся в группе Гости, не могут оставлять комментарии к данной публикации.