вход на сайт

Имя пользователя :
Пароль :

Восстановление пароля Регистрация
(2012) Slim (CENTR) / CEN-Тропе (Rap) [FLAC (tracks+.cue), lossless]
Рейтинг:
(голосов: 1)



[img]{THEME}/images/logopost.png[/img]



*Исполнитель: Slim (CENTR)
*Страна: Россия, г.Москва
*Альбом: CEN-Тропе
*Тип альбома: Студийный
*Год выпуска: 2012
*Жанр: Rap
*Аудиокодек:FLAC (*.flac)
*Тип рипа: tracks+.cue
*Битрейт: lossless
*LOG-Файлы: Присутствуют
*Cканы: Присутствуют
*Продолжительность: 00:57:01

*Tреклист:
01. Черное зеркало[04:14]
02. Ласковый мишка[03:02]
03. Не умею петь[03:34]
04. Девочка[03:49]
05. Шлягер[04:21]
06. Наведение резкости[03:52]
07. Дед Мороз[04:00]
08. 20 августа[03:38]
09. Падают звезды[03:39]
10. Мимими[03:51]
11. Водолаз[03:42]
12. Надо успокоиться[03:34](feat. Птаха)
13. Пришла весна[02:37]
14. Тихий омут[03:27]
15. Вэлкам ту Центропе[3:56]
16. Новелла[01:45]feat. Костя Бес(Короткая версия)
Лог создания рипа ▼TextExact Audio Copy V1.0 beta 3 from 29. August 2011

Отчёт EAC об извлечении, выполненном 26. августа 2012, 20:51

Slim / CEN-ТРопе

Дисковод: hp CDDVDW TS-L633R Adapter: 0 ID: 1

Режим чтения : Достоверность
Использование точного потока : Да
Отключение кэша аудио : Да
Использование указателей C2 : Нет

Коррекция смещения при чтении : 6
Способность читать области Lead-in и Lead-out : Нет
Заполнение пропущенных сэмплов тишиной : Да
Удаление блоков с тишиной в начале и конце : Нет
При вычислениях CRC использовались нулевые сэмплы : Да
Интерфейс : Встроенный Win32-интерфейс для Win NT/2000
Обработка зазоров : Добавлено к предыдущему треку

Выходной формат : Внутренние WAV-операции
Формат сэмплов : 44.100 Гц; 16 бит; стерео

TOC извлечённого CD

Трек | Старт | Длительность | Начальный сектор | Конечный сектор
---------------------------------------------------------------------
1 | 0:00.00 | 4:14.00 | 0 | 19049
2 | 4:14.00 | 3:02.38 | 19050 | 32737
3 | 7:16.38 | 3:34.00 | 32738 | 48787
4 | 10:50.38 | 3:49.29 | 48788 | 65991
5 | 14:39.67 | 4:21.38 | 65992 | 85604
6 | 19:01.30 | 3:52.00 | 85605 | 103004
7 | 22:53.30 | 4:00.00 | 103005 | 121004
8 | 26:53.30 | 3:38.66 | 121005 | 137420
9 | 30:32.21 | 3:39.00 | 137421 | 153845
10 | 34:11.21 | 3:51.00 | 153846 | 171170
11 | 38:02.21 | 3:42.00&nb
732227e17c0dc8d2118d7307b3c8ed2382d5f142(2012) Slim (CENTR) / CEN-Тропе (Rap) [FLAC (tracks+.cue), lossless] (2012) Slim (CENTR) / CEN-Тропе (Rap) [FLAC (tracks+.cue), lossless] " />

Аплоадер: Админ, дата: 24-01-2013, 16:05, торрент скачан: 359 раз

Понравилась раздача? Посмотрите эти:
  • (2000) Lenny Kravitz / Greatest Hits (Rock, Funk) [FLAC (image+.cue), lossl ...
  • (2013) Стриж / Игристое (Rap, Hip-Hop) [FLAC (Tracks+.Cue), Lossless]
  • (2013) Баста / Баста 4 (Rap, Hip-Hop) [FLAC (Tracks+.Cue), Lossless]
  • (2013) Loc-Dog & Tony VA / Все знают всё (Rap, Hip-Hop) [FLAC (Tracks+.Cue ...
  • (2012) Рем Дигга / Черника (Rap) [FLAC (tracks+.cue), lossless]
  • (2012) Три Кита (Зануда, Gipsy King, Тато) / Три Кита (Rap) [FLAC (tracks+. ...
  • (2010) Зануда ака Птаха (Centr) / Папиросы (Rap) [FLAC(track+.cue), lossles ...
  • (2011) Slim (Centr) / Отличай Людей (Rap) [FLAC (tracks+.cue)lossless]
  • (2011) Легенды Про / Желтый Дом (Rap) [FLAC (tracks+.cue), Lossless]
  • (2011) CENTR и Легенды Про... / Легенды Про...CENTR (Rap) [FLAC (tracks+.cu ...
  • (2012) Guf / Сам И ... (Rap) [FLAC (tracks+.cue), lossless]
  • (2012) Адвайта / Не спать (Rap) [FLAC (tracks+.cue), lossless]
  • (2012) Триада / Мои глаза открыты (Rap) [FLAC (tracks+.cue), lossless]
  • (2012) KREC / Молча проще (Rap) [FLAC (tracks+.cue), lossless]
  • (2012) Птаха / Старые тайны (Rap) [FLAC (tracks+.cue), lossless]
  • (2011) Slim & Konstantah / Азимут (Rap) [ALAC(tracks)lossless]
  • (2011) Ассаи / ОМ (Rap) [FLAC (tracks+.cue), lossless]
  • (2012) Влади (Каста) / Ясно! (Rap) [ FLAC (tracks+.cue), lossless]
  • (2012) Словетский / Мозайка (Rap) [FLAC (tracks+.cue), lossless]
  • (2012) Slim / CEN-Тропе (Rap) [MP3, 320/CBR]
  • Информация
    Посетители, находящиеся в группе Гости, не могут оставлять комментарии к данной публикации.