вход на сайт

Имя пользователя :
Пароль :

Восстановление пароля Регистрация
(2012) Guf / Сам И ... (Rap) [FLAC (tracks+.cue), lossless]
Рейтинг:
(голосов: 1)



[img]{THEME}/images/logopost.png[/img]



Исполнитель: Guf
Страна: Россия, Москва
Альбом: Сам И ...
Тип альбома: Студийный
Год выпуска: 2012
Жанр: Rap, Hip-Hop
Аудиокодек: FLAC (*.flac)
Тип рипа: tracks+.cue
Битрейт: lossless
Log-файл: Присутствуют
Сканы: Отсутствуют
Продолжительность: 01:19:29


Tреклист:
01. Вход (scratch by DJ Cave)[00:01:52]
02. Хобби[00:03:27]
03. Спокоен (feat. ОУ74)[00:04:21]
04. На пол[00:02:39]
05. Сегодня-завтра[00:04:53]
06. Наш почерк (feat. Смоки Мо)[00:03:30]
07. Распорядок дня[00:03:52]
08. Бессоница (feat. Murovei)[00:03:53]
09. Баллада[00:03:27]
10. Мои демоны (feat. Princip, 5 Плюх, Аpxi, scratch by Chinmachine)[00:03:22]
11. Гуф умер (feat. Баста)[00:03:03]
12. Ремесло (feat. ОУ74, scratch by DJ Cave)[00:02:53]
13. Фанзона[00:03:30]
14. Скит с Сэмом[00:00:35]
15. Новенький[00:03:18]
16. ПНП (feat. TGK)[00:04:20]
17. Начало конца (scratch by Chinmachine)[00:04:08]
18. О лени (feat. ОУ74)[00:04:21]
19. Письмо домой[00:04:37]
20. Скажи (feat. TAHDEM Foundation)[00:03:33]
21. Дно[00:03:09]
22. Наугад (scratch by DJ Shved)[00:03:17]
23. Выход (scratch by DJ Cave)[00:03:19]

Лог создания рипа ▼TextExact Audio Copy V1.0 beta 3 from 29. August 2011

Отчёт EAC об извлечении, выполненном 21. декабря 2012, 23:20

Guf / Сам И

Дисковод: Optiarc DVD RW AD-7280S Adapter: 0 ID: 0

Режим чтения : Достоверность
Использование точного потока : Да
Отключение кэша аудио : Да
Использование указателей C2 : Нет

Коррекция смещения при чтении : 48
Способность читать области Lead-in и Lead-out : Нет
Заполнение пропущенных сэмплов тишиной : Да
Удаление блоков с тишиной в начале и конце : Нет
При вычислениях CRC использовались нулевые сэмплы : Да
Интерфейс : Встроенный Win32-интерфейс для Win NT/2000
Обработка зазоров : Добавлено к предыдущему треку

Выходной формат : Пользовательский кодировщик
Выбранный битрейт : 128 kBit/s
Качество : Высокий
Добавление ID3-тега : Нет
Утилита сжатия : C:Program Files (x86)FLACflac.exe
Дополнительные параметры : -V -8 -T "Genre=%genre%" -T "Artist=%artist%" -T "Title=%title%" -T "Album=%albumtitle%" -T "Date=%year%" -T "Tracknumber=%tracknr%" -T "Comment=%comment%" %source%


TOC извлечённого CD

Трек | Старт | Длительность | Начальный сектор | Конечный сектор
---------------------------------------------------------------------
1 | 0:00.00 1:52.23 | 0 | 8422
2 | 1:52.23 | 3:27.29 | 8423 | 23976
3 | 5:19.52 | 4:21.62 | 23977 | 43613
4 | 9:41.39 | 2:38.73 | 43614 | 55536
5
22016d98ad388a0fb7964fd0144312a9f5c9616b(2012) Guf / Сам И ... (Rap) [FLAC (tracks+.cue), lossless] (2012) Guf / Сам И ... (Rap) [FLAC (tracks+.cue), lossless] " />

Аплоадер: Админ, дата: 21-01-2013, 12:15, торрент скачан: 359 раз

Понравилась раздача? Посмотрите эти:
  • (2012) Sting / Fifteen Healing Bites (Pop Rock)(Chinese Dragon) [FLAC (trac ...
  • (2013) Linkin Park / Underground XIII (Alternative Rock) [FLAC (tracks+.cue ...
  • (2013) Ahimas / Алатан (Rap, Hip-Hop) [FLAC (Tracks+.Cue), Lossless]
  • (2013) Смоки Мо / Младший (Rap, Hip-Hop) [FLAC (Tracks+.Cue), Lossless]
  • (2013) Маклай и Ганза / Статус-Кво (Rap, Hip-Hop) [FLAC (Tracks+.Cue), Loss ...
  • (2013) Lone / Спутник (Rap, Hip-Hop) [FLAC (Tracks+.Cue), Lossless]
  • (2013) Стриж / Игристое (Rap, Hip-Hop) [FLAC (Tracks+.Cue), Lossless]
  • (2013) Баста / Баста 4 (Rap, Hip-Hop) [FLAC (Tracks+.Cue), Lossless]
  • (2013) Loc-Dog & Tony VA / Все знают всё (Rap, Hip-Hop) [FLAC (Tracks+.Cue ...
  • (1989) Fausto Papetti / Magic Sax [Vol. 2] (Instrumental) [FLAC (tracks+.cu ...
  • (2012) Рем Дигга / Черника (Rap) [FLAC (tracks+.cue), lossless]
  • (2012) Три Кита (Зануда, Gipsy King, Тато) / Три Кита (Rap) [FLAC (tracks+. ...
  • (2011) ГРОТ / О Пути По Встречной (Rap) [FLAC (tracks+.cue), lossless]
  • (2012) The Rasmus / The Rasmus (Alternative Rock/Melodic Rock) [FLAC (track ...
  • (2011, Сборник) VA / The Worlds Greatest Ballads (3CD) (Pop) [FLAC (tracks+ ...
  • (2012) Адвайта / Не спать (Rap) [FLAC (tracks+.cue), lossless]
  • (2012) Триада / Мои глаза открыты (Rap) [FLAC (tracks+.cue), lossless]
  • (2012) KREC / Молча проще (Rap) [FLAC (tracks+.cue), lossless]
  • (2012) Brick Bazuka / Слои (Rap) [FLAC (tracks+.cue), lossless]
  • (2012) Птаха / Старые тайны (Rap) [FLAC (tracks+.cue), lossless]
  • (2012) Rammstein / Mein Herz brennt (Industrial, Tanz-Metal) [FLAC (tracks ...
  • (2011) Ассаи / ОМ (Rap) [FLAC (tracks+.cue), lossless]
  • (2012) Ария / Live In Studio (Heavy Metal) [FLAC (image+.сue), lossless]
  • (2012) Словетский / Мозайка (Rap) [FLAC (tracks+.cue), lossless]
  • (2012) Guf / Сам и... (Rap) [MP3, 320/CBR]
  • Информация
    Посетители, находящиеся в группе Гости, не могут оставлять комментарии к данной публикации.