вход на сайт

Имя пользователя :
Пароль :

Восстановление пароля Регистрация
(2011) Красное Дерево / К.И.Д.О.К. (Rap / Hip-Hop) [APE (image+.cue), lossless]
Рейтинг:
(голосов: 1)



[img]{THEME}/images/logopost.png[/img]



Исполнитель: Красное дерево
Страна: Россия
Альбом: К.И.Д.О.К.
Тип альбома: Студийный
Год выпуска: 2011
Жанр: Rap / Hip-Hop
Страна (Издатель, Каталожный номер): Россия (Монолит, МТ 000410-731-1)
Аудиокодек: APE (*.ape)
Тип рипа: image+.cue
Битрейт: lossless
Продолжительность: 00:56:10


Tреклист:
01. Красное дерево - Сказ от Вадима Курнулли (1:20)
02. Красное дерево feat. Юрий "Ганс" Кучерявый (R.I.P.) - Фонит (3:41)
03. Красное дерево - 31-ый Прайд (3:58)
04. Красное дерево feat. ANTOH MC - Каждому своё (3:48)
05. Красное дерево feat. АУ - Однажды (3:39)
06. Красное дерево - Столичная булочная (скит) (0:22)
07. Красное дерево - Грешник (4:00)
08. Красное дерево - Сынок при участии Михалыч (4:00)
09. Красное дерево feat. ANTOH MC - Район, базар и медные трубы (3:01)
10. Красное дерево - Как бы (2:21)
11. Красное дерево feat. SHZA - Руки милосердные (3:03)
12. Красное дерево - Помни... (3:22)
13. Красное дерево feat. ZOTi - Единицы (2:52)
14. Красное дерево - Следующий шаг (2:54)
15. Красное дерево - Один (3:05)
16. Красное дерево - Русские идут (2:32)
17. Красное дерево - За Кидок Продакшн (beatbox от SHARP SFX) (0:35)
18. Красное дерево - Кидок Продакшн (3:59)
19. Красное дерево - Химические формулы (3:40)

Лог создания рипа ▼TextExact Audio Copy V1.0 beta 3 from 29. August 2011

Отчёт EAC об извлечении, выполненном 21. апреля 2012, 16:39

Красное Дерево / К.И.Д.О.К.

Дисковод: Optiarc DVD RW AD-7261S Adapter: 5 ID: 0

Режим чтения : Достоверность
Использование точного потока : Да
Отключение кэша аудио : Да
Использование указателей C2 : Нет

Коррекция смещения при чтении : 48
Способность читать области Lead-in и Lead-out : Нет
Заполнение пропущенных сэмплов тишиной : Да
Удаление блоков с тишиной в начале и конце : Нет
При вычислениях CRC использовались нулевые сэмплы : Да
Интерфейс : Встроенный Win32-интерфейс для Win NT/2000

Выходной формат : Внутренние WAV-операции
Формат сэмплов : 44.100 Гц; 16 бит; стерео

TOC извлечённого CD

Трек | Старт | Длительность | Начальный сектор | Конечный сектор
---------------------------------------------------------------------
1 | 0:00.00 | 1:19.46 | 0 | 5970
2 | 1:19.46 | 3:41.02 | 5971 | 22547
3 | 5:00.48 | 3:57.52 | 22548 | 40374
4 | 8:58.25 | 3:48.16 | 40375 | 57490
5 | 12:46.41 | 3:39.26 | 57491 | 73941
6 | 16:25.67 | 0:21.53 | 73942 | 75569
7 | 16:47.45 | 4:00.00 | 75570 | 93569
8 | 20:47.45 | 3:59.63 | 93570 | &
191d5cdd26e741827d409dbbcb784b06632ee1dd(2011) Красное Дерево / К.И.Д.О.К. (Rap / Hip-Hop) [APE (image+.cue), lossless] (2011) Красное Дерево / К.И.Д.О.К. (Rap / Hip-Hop) [APE (image+.cue), lossless] " />

Аплоадер: Админ, дата: 16-08-2012, 12:24, торрент скачан: 359 раз

Понравилась раздача? Посмотрите эти:
  • (2000) Lenny Kravitz / Greatest Hits (Rock, Funk) [FLAC (image+.cue), lossl ...
  • (Дискография, 2005-2012) Кровосток (Rap) [MP3, 91-319 kbps/128-320 kbps / ...
  • (2013) Сальто Назад - Дерево (Rap, Hip-Hop) [MP3, 256 kbps/CBR]
  • (2013) Красное Солнце / Повесть о суровом севере (Rap) [MP3, 320 kbps/CBR]
  • (1998) Штар / Красное платье (Шансон) [MP3, 320/CBR]
  • (2012, сборник) VA / Только Рэп - Сборник русского рэпа. Часть 6 (Rap) [mp3 ...
  • (2007) Morandi / N3xt (Pop) [APE, (image + .cue), lossless]
  • (2010) Баста / Баста 3 (Rap) [APE (image+.cue), lossless]
  • (2010) Хамиль и Змей (Каста) / ХЗ (Rap) [APE(image+.cue), lossless]
  • (2010) Noize MC / Последний Альбом (Rap) [APE(image+.cue), lossless]
  • (2010) ДаБац (Da Budz) / Вершки Да Корешки(Rap) [APE (image+.cue), lossless ...
  • (2010) Zdob si Zdub / Белое вино / Красное вино (folk rock, folk punk, hard ...
  • (2011) АукцЫон / Юла (Rock) [APE (image+.cue), lossless]
  • (2012) Serebro / Mama Lover (Монолит) (Pop) [FLAC (image+.cue), lossless]
  • Репортерские истории: Красное и ЧЁРНОЕ (Документальный, 2012) [TVRip, Не тр ...
  • (Дискография) Красное Дерево (Rap) [MP3, 96-320/CBR]
  • (2009) Guf / Дома (Rap) [APE (image+.cue)]
  • Красное солнце / Red Sun (Теренс Янг, Вестерн, 1971) [DVDRip, Профессиональ ...
  • Волшебное дерево / Magiczne drzewo (Анджей Малешка, Фэнтези, приключения, с ...
  • (2008) 6-ой Отряд и Главные Герои / Опасно стоять у края платформы (Rap) [ ...
  • Корней Чуковский. Чудо-дерево и другие сказки (детская литература) [1986, p ...
  • (2011) Красное Дерево / К.И.Д.О.К. (Rap) [Mp3, 320/CBR]
  • (2011) N1NT3NDO / N1NT3NDO (Rap) [APE (image+.сue), lossless]
  • Репортерские истории. Красное и черное. (Документальный, Общественно-полити ...
  • (2012, сборник) VA / Театр Душ.Часть первая (Rap) [MP3, 320/CBR]
  • Информация
    Посетители, находящиеся в группе Гости, не могут оставлять комментарии к данной публикации.