вход на сайт

Имя пользователя :
Пароль :

Восстановление пароля Регистрация
(2012) Руставели / Начало света (Rap) [FLAC (image+.cue), lossless]
Рейтинг:
(голосов: 1)



[img]{THEME}/images/logopost.png[/img]



Исполнитель: Руставели
Альбом: Начало света
Страна: Россия
Издатель (лейбл): ООО "ДиВиДи-Клуб"
Номер по каталогу: IFPI LW80
Тип альбома: Студийный
Год выпуска: 2012
Жанр: Rap
Формат: FLAC (image+.cue)
Битрейт: lossless
Продолжительность: 00:54:27

Tреклист:
01. Карт-бланш (при уч. Санчес и White Hot Ice) (3:07)
02. Инкубатор (при уч. Нелегал a.k.a. MC L.E.) (3:39)
03. Ева (при уч. Алёна) (4:06)
04. Ответ (стих) (1:28)
05. Двойные Стандарты (при уч. Санчес) (3:11)
06. Капкан (стих) (1:12)
07. Холодные Огни (3:44)
08. Искра (при уч. РЕМО) (3:25)
09. Не Кино (при уч. Алёна) (3:08)
10. Лучший день (при уч. Маклай) (3:12)
11. Кожа (при уч. Динайс и Булат) (4:59)
12. Такая Как Ты (при уч. White Hot Ice) (3:47)
13. Стали Старше (при уч. VA84, Санчес и Юлия Антонова) (5:12)
14. Бег от Cебя (DotsBand) (4:19)
15. Начало Cвета (3:37)
16. ПорА (стих) (1:53)

Лог создания рипа ▼Exact Audio Copy V0.99 prebeta 4 from 23. January 2008

EAC extraction logfile from 26. March 2012, 16:39

Руставели / Начало света

Used drive: Optiarc DVD RW AD-5240S Adapter: 3ID: 0

Read mode : Secure
Utilize accurate stream : Yes
Defeat audio cache: Yes
Make use of C2 pointers : No

Read offset correction: 48
Overread into Lead-In and Lead-Out: No
Fill up missing offset samples with silence : Yes
Delete leading and trailing silent blocks : No
Null samples used in CRC calculations : Yes
Used interface: Native Win32 interface for Win NT & 2000

Used output format: User Defined Encoder
Selected bitrate: 768 kBit/s
Quality : High
Add ID3 tag : No
Command line compressor : C:Program FilesExact Audio CopyFLACFLAC.EXE
Additional command line options : -8 -V -T "ARTIST=%a" -T "TITLE=%t" -T "ALBUM=%g" -T "DATE=%y" -T "TRACKNUMBER=%n" -T "GENRE=%m" -T "COMMENT=EAC FLAC -8" %s


TOC of the extracted CD

Track | Start|Length| Start sector | End sector
---------------------------------------------------------
1|0:00.00 |3:07.09 | 0|14033
2|3:07.09 |3:38.72 | 14034|30455
3|6:46.06 |4:05.54 | 30456|48884
4| 10:51.60 |1:28.21 | 48885|55505&nbs
370c2fb636b907351a0c76811f98a8be08aa0fe6(2012) Руставели / Начало света (Rap) [FLAC (image+.cue), lossless] (2012) Руставели / Начало света (Rap) [FLAC (image+.cue), lossless] " />

Аплоадер: Админ, дата: 26-03-2012, 18:10, торрент скачан: 359 раз

Понравилась раздача? Посмотрите эти:
  • (2009) НОЧНЫЕ СНАЙПЕРЫ — Армия2009 (русский рок) [FLAC (lossless), tracks+. ...
  • (2007) GORILLAZ / D-Sides [Japan Edition] (Hip-Hop) [FLAC (image+cue), loss ...
  • (2010)Scorpions/Sting In The Tail [FLAC (tracks+cue), lossless]
  • (1989) Kaoma / Lambada (lambada / latin / ethnic) [FLAC (image+.cue), lossl ...
  • (2010) ПИKНИК / Театр Абсурда (Art-Rock) [FLAC (tracks+.cue), lossless]
  • (2008) Pink / Funhouse (Pop) [FLAC (tracks) lossless]
  • (2010) Сергей Трофимов (Трофим) / Всё не важно (Шансон) [FLAC(image+.cue), ...
  • (2010) Ассаи / Лифт (Rap) [FLAC(image+.cue), lossless]
  • (2010) Eminem / Recovery (Rap / Hip-Hop) [FLAC (tracks+.cue) lossless]
  • (2010) Начало / Inception (by Hans Zimmer) (Score) [FLAC (tracks+.cue) loss ...
  • (2010) Michael Jackson - Michael (Pop) [FLAC, (tracks+.cue), lossless]
  • (2009) Michael Jackson / The Stripped Mixes (POP) [Flac / Tracks + .cue]
  • (2011) The Prodigy / Worlds On Fire (Big Beat, Rave) [FLAC (image+.cue), lo ...
  • (Дискография, 1988-2011) Kingdom Come (Hard&Heavy,Glam Metal) [FLAC (image+ ...
  • (2010) Rihanna / Loud (R&B) [FLAC (tracks+.cue), lossless]
  • (2003) DJ Zinc / Faster (DnB, Breaks) [ FLAC (tracks+.cue), lossless]
  • (1976) The Eagles / Hotel California [Japan Remastered] (Country Rock) [FLA ...
  • (2011) Electric Universe / Higher Modes (Psytrance, Full On) [FLAC (tracks+ ...
  • (2009) Чиж & Co / Лучшее. Золотая коллекция (Rock) [FLAC (image+.cue), loss ...
  • (2011) Stargazery / Eye On The Sky (Heavy Metal) [FLAC (image+.cue), lossle ...
  • (2009) Mystica / Second Dive (Trance, Ambient & Downtempo, Chill Out) [FLAC ...
  • (2012) Руставели (Многоточие / DotsFam) / Начало Света (Rap) [MP3, 320/CBR] ...
  • (2012) The Cranberries / Roses (Alternative Rock / Pop-Rock) [FLAC (tracks+ ...
  • (2011) Volumes / Via (Progressive Metalcore/Math Metal) [FLAC (image+.cue), ...
  • (2012) Оргия Праведников / Шитрок (Rock/Progressive Rock) [FLAC (tracks+cue ...
  • Информация
    Посетители, находящиеся в группе Гости, не могут оставлять комментарии к данной публикации.