вход на сайт

Имя пользователя :
Пароль :

Восстановление пароля Регистрация
(2009) 4пыль / На Разных Языках (Hip-Hop) [APE (image+.cue) lossless]
Рейтинг:
(голосов: 1)



[img]{THEME}/images/logopost.png[/img]



Исполнитель: 4пыль
Альбом: На Разных Языках
Страна: Россия
Тип альбома: Студийный
Год выпуска: 2009
Жанр: Hip-Hop
Формат: APE (image+.сue)
Битрейт: lossless
Log-файл: присутствует
Продолжительность: 00:40:01

Об исполнителе:
▼4пыль вы могли слышать на сборниках от ЛевПрава «Из подполья на танцпол 2″ («Стереть») и «Одна любовь 2″ («Эрика»), а также на недавней третьей части «Хип-хопа для гурманов» («Апатия»). При этом его творчество мало похоже на генеральные линии и того и другого движения. Вся музыка к «На разных языках», кроме бонусов, написана битмейкером Simple, работавшего с Карандашом, Винтом и Мэфом, Slim (CENTR), ТАНДЕМ Foundation и многими другими.
Фото ▼

Tреклист:
[01:36] 01. 4пыль - Для
[03:25] 02. 4пыль - На разных языках
[02:01] 03. 4пыль - Окончательно
[03:41] 04. 4пыль - ППП (другая версия) + Кто-то (скит)
[04:32] 05. 4пыль - Скажи
[01:13] 06. 4пыль - Вчера
[03:24] 07. 4пыль - Друзья пу Саша Калиюга, Тро
[03:18] 08. 4пыль - Сон пу Липазз
[02:53] 09. 4пыль - Утро
[01:45] 10. 4пыль - Менять (аутро)
[02:53] 11. 4пыль - Re:На разных языках (ремикс)
[03:47] 12. 4пыль - Эрика (бонус трек)
[02:04] 13. 4пыль - Стереть (бонус трек)
[03:24] 14. 4пыль - Спектакль (бонус трек)


Лог создания рипа ▼TextExact Audio Copy V0.99 prebeta 5 from 4. May 2009

Отчёт EAC об извлечении, выполненном 30. марта 2010, 3:58

4пыль / На Разных Языках

Дисковод: Optiarc DVD RW AD-7173S Adapter: 3 ID: 0

Режим чтения : Достоверность
Использование точного потока : Да
Отключение кэша аудио : Да
Использование указателей C2 : Нет

Коррекция смещения при чтении : 48
Способность читать области Lead-in и Lead-out : Нет
Заполнение пропущенных сэмплов тишиной : Да
Удаление блоков с тишиной в начале и конце : Нет
При вычислениях CRC использовались нулевые сэмплы : Да
Интерфейс : Встроенный Win32-интерфейс для Win NT/2000

Выходной формат : Внутренние WAV-операции
Формат сэмплов : 44.100 Гц; 16 бит; стерео


TOC извлечённого CD

Трек | Старт | Длительность | Начальный сектор | Конечный сектор
---------------------------------------------------------------------
1 | 0:00.00 | 1:36.28 | 0 | 7227
2 | 1:36.28 | 3:25.12 | 7228 | 22614
3 | 5:01.40 | 2:01.18 | 22615 | 31707
4 | 7:02.58 | 3:41.12 | 31708 | 48294
5 | 10:43.70 | 4:32.29 | 48295 | 68723
6 | 15:16.24 | 1:13.17 | 68724 | 74215
7 | 16:29.41 | 3:24.36 | 74216 | 89551
&
734aa46b5bb73bbcb0fb3f0cfc832fdb3329c88a(2009) 4пыль / На Разных Языках (Hip-Hop) [APE (image+.cue) lossless] (2009) 4пыль / На Разных Языках (Hip-Hop) [APE (image+.cue) lossless] " />

Аплоадер: Админ, дата: 5-12-2011, 11:56, торрент скачан: 359 раз

Понравилась раздача? Посмотрите эти:
  • (2009) Воскресение / The Best (Rock ) [APE (image + .cue), lossless]
  • (2000) Tic Tac Toe / Ist der Ruf erst ruiniert... (Rap,Hip-hop) [Lossless, ...
  • (2008) НоГГано / Первый (Rap) [APE(image+cue), lossless]
  • (2010) ST1M / Октябрь (Rap) [APE(image+.cue), lossless]
  • (2006) Батырхан Шукенов/ Отан Ана (Pop) [FLAC (image+.cue) lossless]
  • (2010) Хамиль и Змей (Каста) / ХЗ (Rap) [APE(image+.cue), lossless]
  • (2010) Noize MC / Последний Альбом (Rap) [APE(image+.cue), lossless]
  • (2010) ДиДюЛя / Аромат (flamenco, instrumental, folk) [APE (image + .cue), ...
  • (1984) Boney M / Ten Thousand Lightyears (Disco) [APE (image+.cue) lossles ...
  • (1985) BABYS GANG / Challenger (Pop,Italo Disco) [APE(image+.cue)lossless] ...
  • (2011) Blues Cousins / KGB Blues (Blues Rock) [FLAC (image+.cue), lossless] ...
  • (2005) плюм-Бум / Чистая правда (Funk, Reggae, Pop-Punk) [APE(image+.cue), ...
  • (2011) АукцЫон / Юла (Rock) [APE (image+.cue), lossless]
  • (2003) THE BLACK EYED PEAS / Elephunk (RnB) [Ape (image+.cue), lossless]
  • (2009) Rihanna / Rated R (R`n`B) [APE (image+.cue)]
  • (2009) Guf / Дома (Rap) [APE (image+.cue)]
  • ( 2001) Воскресение / Звездная коллекция (Rock) [FLAC (image+.cue) lossless ...
  • (1993) Любовь Успенская / Любимый (шансон) [APE (image+.cue), lossless]
  • (2009) Челси / Точка возврата (Pop) [APE (image+.cue), lossless]
  • (2009, Cборник) Madonna / Greatest Hits [CD1 + CD2] (Pop) [APE (image+.cue) ...
  • (2011) N1NT3NDO / N1NT3NDO (Rap) [APE (image+.сue), lossless]
  • (2009) Kamazz (3NT) / Завязал (Hip-Hop) [APE (image+.cue) lossless]
  • (2011) КняZz / Письмо из Трансильвании (Punk-Rock) [APE (image+.сue), lossl ...
  • (2004) Ex-Сектор Газа / Огненный рай (Punk-Rock) [FLAC (image+.cue), lossle ...
  • (2008) Студия 80 / Придуманный Мир (Pop) [FLAC (image+.cue), lossless]
  • Информация
    Посетители, находящиеся в группе Гости, не могут оставлять комментарии к данной публикации.