вход на сайт

Имя пользователя :
Пароль :

Восстановление пароля Регистрация
(2009) D-Man 55 / 7.62 Б-30 (Rap) [FLAC (image+.cue) lossless]
Рейтинг:
(голосов: 1)



[img]{THEME}/images/logopost.png[/img]




Исполнитель: D-Man 55
Альбом: 7.62 Б-30
Страна: Россия
Тип альбома: Студийный
Год выпуска: 2009
Жанр:Rap
Формат:FLAC (image+.cue)
Битрейт: lossless
Log-файл: присутствует
Продолжительность: 00:48:08

Track List:
[02:21] 01. D-Man 55 - 7.62 Б-30 (прод. Kubrak)
[03:09] 02. D-Man 55 - Pb п.у. Бледный, Ант/Иезекииль 25:17 (прод. Ант)
[03:01] 03. D-Man 55 - Vita militate eat п.у. ШZА (прод. Kubrak)
[02:57] 04. D-Man 55 - Конторы (прод. King Shi)
[03:23] 05. D-Man 55 - Соблюдай спокойствие (прод. King Shi)
[02:34] 06. D-Man 55 - Гэнг-Бэнг (прод. Kubrak)
[03:51] 07. D-Man 55 - В городе, где нет метро п.у. Бледный, Ант/Иезекииль 25:17, Псих/Песочные Люди, Тато (прод. Ант)
[02:10] 08. D-Man 55 - In God We Trust (прод. Kubrak)
[03:07] 09. D-Man 55 - Компас п.у. MC 1.8 (прод. DJ Navvy)
[03:14] 10. D-Man 55 - К свету п.у. Ант/Иезекииль 25:17 (прод. Ант)
[02:40] 11. D-Man 55 - Думай п.у. Бледный, Ант/Иезекииль 25:17 (прод. DJ Navvy)
[03:04] 12. D-Man 55 - Тень независимости п.у. MC 1.8, King Shi (прод. King Shi)
[02:43] 13. D-Man 55 - Бейся! (сердце) п.у. Бледный/Иезекииль 25:17, DJ Navvy (прод. Ант)
[03:07] 14. D-Man 55 - Нормально п.у. Бледный, Ант/Иезекииль 25:17, DJ Navvy (прод. Ант)
[03:24] 15. D-Man 55 - Слова п.у. Бледный/Иезекииль 25:17 (прод. Кит/МСК)
[03:15] 16. D-Man 55 - Контрольный (прод. Kubrak)
"СDDA" ▼"log" ▼TextExact Audio Copy V0.99 prebeta 5 from 4. May 2009

EAC extraction logfile from 18. October 2009, 21:00

D-Man 55 / 7.62 Б-30

Used drive : ASUS CRW-5232AS Adapter: 0 ID: 1

Read mode : Secure
Utilize accurate stream : Yes
Defeat audio cache : Yes
Make use of C2 pointers : No

Read offset correction : 6
Overread into Lead-In and Lead-Out : No
Fill up missing offset samples with silence : Yes
Delete leading and trailing silent blocks : No
Null samples used in CRC calculations : Yes
Used interface : Installed external ASPI interface

Used output format : Internal WAV Routines
Sample format : 44.100 Hz; 16 Bit; Stereo


TOC of the extracted CD

Track | Start | Length | Start sector | End sector
---------------------------------------------------------
1 | 0:00.00 | 2:21.62 | 0 | 10636
2 | 2:21.62 | 3:09.40 | 10637 | 24851
3 | 5:31.27 | 3:01.37 | 24852 | 38463
4 | 8:32.64 | 2:57.29 | 38464 | 51767
5 | 11:30.18 | 3:23.54 | 51768 | 67046
6 | 14:53.72 | 2:34.58 | 67047 | 78654
7 | 17:28.55 | 3:51.54 | 78655 | 96033
8 | 21:20.34 | 2:10.00 | 96034 | 105783
9 | 23:30.34 | 3:07.71 | 105784 | 119879
10 | 26:38.30 | 3:14.61 | 119880 |
0ab4a95b725814659de9e13446d181f9aa9c7c46(2009) D-Man 55 / 7.62 Б-30 (Rap) [FLAC (image+.cue) lossless] (2009) D-Man 55 / 7.62 Б-30 (Rap) [FLAC (image+.cue) lossless] " />

Аплоадер: Админ, дата: 22-11-2011, 13:02, торрент скачан: 359 раз

Понравилась раздача? Посмотрите эти:
  • (1993) Mick Jagger / Wandring Spirit (Rock) [FLAC(image+.cue), lossless]
  • (1996) George Michael / Older (1st Press Japan) (Electronic, Pop/Rock) [FLA ...
  • (2014) Рем Дигга, the Chemodan - Одна петля (Rap, Hip-Hop ) [MP3, 320 kbps/ ...
  • (2013) Pra (KillaGramm) / Топь (Rap, Hip-Hop) [MP3, 320 kbps/CBR]
  • (2009, сборник) VA / Christmas Chill Out Lounge (Chillout) [FLAC (image + . ...
  • (2008) Ассаи / Фаталист (Rap) [Ape(image+.cue), lossless]
  • (2008) Капа и Картель / Гламурным (Rap) [Ape(image+ cue), lossless]
  • (1989) Kaoma / Lambada (lambada / latin / ethnic) [FLAC (image+.cue), lossl ...
  • (2010) Сергей Трофимов (Трофим) / Всё не важно (Шансон) [FLAC(image+.cue), ...
  • (2010) Ассаи / Лифт (Rap) [FLAC(image+.cue), lossless]
  • (2007) Константин Никольский / Иллюзии (Rock) [APE (image + .cue), lossless ...
  • (2008) Юрий Наумов / Рок как будто Блюз (Blues) [FLAC (Image+.cue), lossles ...
  • (2011) 3 Doors Down / Time Of My Life [Deluxe Edition] (Alternative Rock/Po ...
  • (1996) DJ Dado / The Album (Electronic, Dream trance) [FLAC (image+.сue), l ...
  • (2012) Сергей Васюта и Сладкий Сон / На белом покрывале января... (Pop) [Fl ...
  • (2012) Kreator / Phantom Antichrist (Thrash Metal) [FLAC (image+.cue), loss ...
  • (2004) Игорь Малинин / От Штирлица до Путина (Pop) [FLAC (image+.cue), los ...
  • (2011) Yanni / Truth Of Touch (New Age) [FLAC (image+ .cue),lossless]
  • (2011) Стас Михайлов / Только ты (Шансон) [Flac(image+.cue)Lossless]
  • (Дискография, 2008-2011) D-Man 55 (Rap) [MP3, 192-320 Kbps / CBR]
  • (2009) Чиж & Co / Лучшее. Золотая коллекция (Rock) [FLAC (image+.cue), loss ...
  • (2010) 25/17 (Иезекииль 25:17, Ант, Бледный) / Зебра (Rap) [FLAC (tracks+.c ...
  • (2009) Mystica / Second Dive (Trance, Ambient & Downtempo, Chill Out) [FLAC ...
  • (2011) Metallica / Beyond Magnetic (Thrash Metal) [FLAC (image+.cue), lossl ...
  • (2010) Татьяна Буланова / Романсы (Pop) [FLAC (image+.cue), lossless]
  • Информация
    Посетители, находящиеся в группе Гости, не могут оставлять комментарии к данной публикации.