вход на сайт

Имя пользователя :
Пароль :

Восстановление пароля Регистрация
(2011) ГРОТ / О Пути По Встречной (Rap) [FLAC (tracks+.cue), lossless]
Рейтинг:
(голосов: 1)



[img]{THEME}/images/logopost.png[/img]



Исполнитель: ГРОТ
Альбом: О Пути По Встречной
Страна: Россия
Тип альбома: Студийный
Год выпуска: 2011
Жанр: Rap
Формат: FLAC (tracks+.cue)
Битрейт: lossless
Log-файл: Присутствует
Продолжительность: 00:46:08

Tреклист:
[01:41] 01. ГРОТ - Дело В Нас
[02:32] 02. ГРОТ - Выстоим
[03:12] 03. ГРОТ - Погружение
[03:01] 04. ГРОТ - Сбыться
[02:41] 05. ГРОТ - Если Подмести
[02:33] 06. ГРОТ - Внутренний Индикатор
[03:31] 07. ГРОТ - Золотая Тропа (feat. D-Man 55 и Ольга Леонова)
[03:08] 08. ГРОТ - Пристань (feat. MC 1.8)
[04:37] 09. ГРОТ - Эксперимент (feat. D-Man 55, Nekby и Валиум)
[02:49] 10. ГРОТ - Инфовоины
[03:35] 11. ГРОТ - Начало Света
[02:56] 12. ГРОТ - Всё По-Старому
[02:38] 13. ГРОТ - Земля-Рывок-Звезда
[03:31] 14. ГРОТ - Адреса (1941-1945) (feat. M-Town)
[02:33] 15. ГРОТ - Я Становлюсь Целым
[02:56] 16. ГРОТ - О Пути По Встречной

Лог создания рипа ▼TextExact Audio Copy V0.99 prebeta 4 from 23. January 2008

Отчёт EAC об извлечении, выполненном 12. ноября 2011, 23:54

Грот / О Пути По Встречной

Дисковод: ASUS DRW-1608P Adapter: 0 ID: 0

Режим чтения : Достоверность
Использование точного потока : Да
Отключение кэша аудио : Да
Использование указателей C2 : Нет

Коррекция смещения при чтении : 48
Способность читать области Lead-in и Lead-out : Нет
Заполнение пропущенных сэмплов тишиной : Да
Удаление блоков с тишиной в начале и конце : Нет
При вычислениях CRC использовались нулевые сэмплы : Да
Интерфейс : Встроенный Win32-интерфейс для Win NT/2000
Обработка зазоров : Добавлено к предыдущему треку

Выходной формат : Пользовательский кодировщик
Выбранный битрейт : 320 kBit/s
Качество : Высокий
Добавление ID3-тэга : Нет
Утилита сжатия : D:Program FilesExact Audio CopyFlacflac.exe
Дополнительные параметры : -8 -V -T "ARTIST=%a" -T "TITLE=%t" -T "ALBUM=%g" -T "DATE=%y" -T "TRACKNUMBER=%n" -T "GENRE=%m" -T "COMMENT=EAC FLAC -8" %s


TOC извлечённого CD

Трек | Старт | Длительность | Начальный сектор | Конечный сектор
---------------------------------------------------------------------
1 | 0:00.00 | 1:41.74 | 0 | 7648
2 | 1:41.74 | 2:32.37 | 7649 | 19085
3 | 4:14.36 | 3:12.74 | 19086 | 33559
4 | 7:27.35 | 3:01.74 | 33560 | 47208
5 | 10:29.34 | 2:41.18 | 47209 | 59301
6 | 13:10.52 | 2:33.74 | 593
88e906ce883a98c0e096a5e5f383d27efbb77d50(2011) ГРОТ / О Пути По Встречной (Rap) [FLAC (tracks+.cue), lossless] (2011) ГРОТ / О Пути По Встречной (Rap) [FLAC (tracks+.cue), lossless] " />

Аплоадер: Админ, дата: 14-11-2011, 00:24, торрент скачан: 359 раз

Понравилась раздача? Посмотрите эти:
  • (2013) Смоки Мо / Младший (Rap, Hip-Hop) [FLAC (Tracks+.Cue), Lossless]
  • (2013) Маклай и Ганза / Статус-Кво (Rap, Hip-Hop) [FLAC (Tracks+.Cue), Loss ...
  • (2013) Баста / Баста 4 (Rap, Hip-Hop) [FLAC (Tracks+.Cue), Lossless]
  • (2013) Loc-Dog & Tony VA / Все знают всё (Rap, Hip-Hop) [FLAC (Tracks+.Cue ...
  • (2012) Рем Дигга / Черника (Rap) [FLAC (tracks+.cue), lossless]
  • (2012) Три Кита (Зануда, Gipsy King, Тато) / Три Кита (Rap) [FLAC (tracks+. ...
  • (2009) Грот - Никто, кроме нас (RaP) [mp3, 192/CBR]
  • (2012) The Rasmus / The Rasmus (Alternative Rock/Melodic Rock) [FLAC (track ...
  • (1993) Mireille Mathieu / Chante Piaf (Pop) [FLAC (tracks+.cue), lossless]
  • (2012) Guf / Сам И ... (Rap) [FLAC (tracks+.cue), lossless]
  • (2012) Триада / Мои глаза открыты (Rap) [FLAC (tracks+.cue), lossless]
  • (2012) KREC / Молча проще (Rap) [FLAC (tracks+.cue), lossless]
  • (2012) Птаха / Старые тайны (Rap) [FLAC (tracks+.cue), lossless]
  • (2011) Грот & D-Man 55 / В Завтра (EP) (Rap) [MP3, 320 Кбит/с /CBR]
  • (2011) Грот / О пути по встречной (Rap) [Mp3, 320/CBR]
  • (2011) Ассаи / ОМ (Rap) [FLAC (tracks+.cue), lossless]
  • Грот / Сбыться [2011, Rap, WebRip]
  • (2012) Грот / Больше, чем живы (Rap) [Mp3, 320/CBR]
  • Грот / Одна Минута [2010, Rap, WebRip]
  • (2012) Словетский / Мозайка (Rap) [FLAC (tracks+.cue), lossless]
  • Информация
    Посетители, находящиеся в группе Гости, не могут оставлять комментарии к данной публикации.