вход на сайт

Имя пользователя :
Пароль :

Восстановление пароля Регистрация
(2010) ДаБац (Da Budz) / Вершки Да Корешки(Rap) [APE (image+.cue), lossless]
Рейтинг:
(голосов: 1)



[img]{THEME}/images/logopost.png[/img]



ДаБац (Da Budz) - Вершки Да Корешки

Исполнитель: ДаБац (Da Budz)
Альбом: Вершки Да Корешки
Тип альбома: Студийный альбом
Год выпуска: 2010
Жанр: Rap/Hip-Hop
Формат: APE (image+.cue)
Битрейт: lossless
Продолжительность: 00:41:29

Tреклист:
01. ДаБац - Kunta Kinte (1:56)
02. ДаБац - Спальный Район (3:37)
03. ДаБац - ДаВайб (2:37)
04. ДаБац - Родная Речь (3:49)
05. ДаБац - Путь feat. Ganjaman (2:57)
06. ДаБац - Одна (3:12)
07. ДаБац - Берега реки (3:08)
08. ДаБац - Освободись от Вавилона (4:27)
09. ДаБац - Танец Войны (2:17)
10. ДаБац - Ух (3:43)
11. ДаБац - Змей (2:51)
12. ДаБац - 123 feat. Staisha (3:37)
13. ДаБац - Громкость 2.0 feat. Смитана (3:15)
Отчет EAC:
▼Exact Audio Copy V0.99 prebeta 4 from 23. January 2008

Отчёт EAC об извлечении, выполненном 1. февраля 2010, 20:38

ДаБац / Вершки Да Корешки

Дисковод: HL-DT-STDVD-RW_GSA-H41N Adapter: 0ID: 0

Режим чтения : Достоверность
Использование точного потока : Да
Отключение кэша аудио: Да
Использование указателей C2: Нет

Коррекция смещения при чтении : 667
Способность читать области Lead-in и Lead-out : Нет
Заполнение пропущенных сэмплов тишиной: Да
Удаление блоков с тишиной в начале и конце: Нет
При вычислениях CRC использовались нулевые сэмплы : Да
Интерфейс : Установленный внешний ASPI-интерфейс

Выходной формат : Внутренние WAV-операции
Формат сэмплов: 44.100 Гц; 16 бит; стерео


TOC извлечённого CD

Трек | Старт| Длительность | Начальный сектор | Конечный сектор
---------------------------------------------------------------------
1|0:00.00 |1:57.04 | 0| 8778
2|1:57.04 |3:37.08 |8779|25061
3|5:34.12 |2:37.07 | 25062|36843
4|8:11.19 |3:49.41 | 36844|54059
5| 12:00.60 |2:57.53 | 54060|67387
6| 14:58.38 |3:12.49 | 67388| 
58dae9a29ed787051480c0a3c2ec459857a5eca1(2010) ДаБац (Da Budz) / Вершки Да Корешки(Rap) [APE (image+.cue), lossless] (2010) ДаБац (Da Budz) / Вершки Да Корешки(Rap) [APE (image+.cue), lossless] " />

Аплоадер: Админ, дата: 15-01-2011, 20:53, торрент скачан: 359 раз

Понравилась раздача? Посмотрите эти:
  • (2000) Tic Tac Toe / Ist der Ruf erst ruiniert... (Rap,Hip-hop) [Lossless, ...
  • (2008) НоГГано / Первый (Rap) [APE(image+cue), lossless]
  • (1994) Joy / Grand Collection (EuroDisco) [FLAC (image+.cue) lossless]
  • (2007) Morandi / N3xt (Pop) [APE, (image + .cue), lossless]
  • (2010) Баста / Баста 3 (Rap) [APE (image+.cue), lossless]
  • (2010) ST1M / Октябрь (Rap) [APE(image+.cue), lossless]
  • (2006) Батырхан Шукенов/ Отан Ана (Pop) [FLAC (image+.cue) lossless]
  • (2010) Хамиль и Змей (Каста) / ХЗ (Rap) [APE(image+.cue), lossless]
  • (2010) Noize MC / Последний Альбом (Rap) [APE(image+.cue), lossless]
  • (2010) ДиДюЛя / Аромат (flamenco, instrumental, folk) [APE (image + .cue), ...
  • (1984) Boney M / Ten Thousand Lightyears (Disco) [APE (image+.cue) lossles ...
  • (2011) Within Temptation / The Unforgiving (Symphonic Gothic Metal) [FLAC ( ...
  • (2009) Rihanna / Rated R (R`n`B) [APE (image+.cue)]
  • (2008) БандЭрос / Коламбия Пикчерз Не Представляет. Новое Издание(R&B) [APE ...
  • (2009) Guf / Дома (Rap) [APE (image+.cue)]
  • (2009) Челси / Точка возврата (Pop) [APE (image+.cue), lossless]
  • (2009, Cборник) Madonna / Greatest Hits [CD1 + CD2] (Pop) [APE (image+.cue) ...
  • (2010) Lara Fabian / The Best of (2CD Limited Edition) (Pop) [Flac(image+.c ...
  • (2004) Ex-Сектор Газа / Огненный рай (Punk-Rock) [FLAC (image+.cue), lossle ...
  • (2008) Студия 80 / Придуманный Мир (Pop) [FLAC (image+.cue), lossless]
  • Информация
    Посетители, находящиеся в группе Гости, не могут оставлять комментарии к данной публикации.