вход на сайт

Имя пользователя :
Пароль :

Восстановление пароля Регистрация
(2010) Смоки МО / Выход Из Темноты (Rap) [APE (image+ cue), lossless]
Рейтинг:
(голосов: 1)



[img]{THEME}/images/logopost.png[/img]



Исполнитель: Смоки МО
Страна:
Альбом: Выход Из Темноты
Тип альбома: Официальный альбом
Год выпуска: 2010
Жанр: Rap/Hip-Hop
Формат: APE (image+.cue)
Битрейт: lossless
Log-файл: Присутсвует
Продолжительность: 00:56:30

Трэклист:
01. Мой Rock (Вход) (0:02:27)
02. Heyaa (Feat. V-Style & Trova-D) (0:04:44)
03. Хроника Той Стороны (Скит) (0:00:20)
04. Высокая Энергия (0:02:54)
05. Money (Feat. Файк & Jambazi) (0:03:42)
06. Money (Скит) (0:00:28)
07. Моя Духовная Основа (0:01:34)
08. Трафик (Feat. Slim & Guf) (0:04:30)
09. Мои Люди Со Мной (Feat. Rasco "Cali Agents" & Big D) (0:03:20)
10. Бла Бла (Cкит) (0:00:26)
11. Звёздный Потолок (Remix) (Feat. Кажэ Обойма & Sil-A) (0:03:24)
12. Стальные Слова (Feat. Don Guralesko) (0:03:22)
13. Jungle (Feat. V-Style) (0:04:18)
14. Зеркальный Город (Feat. Check) (0:03:02)
15. Бог Любит Всех Людей (Feat. Bess) (0:03:32)
16. Кто Есть Создатель (0:02:28)
17. Выход Из Темноты (Выход) (0:04:18)
18. Один На Один (Бонус Трек) (Feat. Баста) (0:05:10)
19. Кто Есть Создатель (Remix) (Бонус Трек) (Feat. Файк) (0:02:26)

Отчет EAC:▼Exact Audio Copy V0.99 prebeta 4 from 23. January 2008
Отчёт EAC об извлечении, выполненном 11. июня 2010, 17:37
Смоки МО / Выход Из Темноты
Дисковод: HL-DT-STDVD-RW_GSA-H41N Adapter: 0 ID: 1
Режим чтения : Достоверность
Использование точного потока : Да
Отключение кэша аудио : Да
Использование указателей C2 : Нет
Коррекция смещения при чтении : 667
Способность читать области Lead-in и Lead-out : Нет
Заполнение пропущенных сэмплов тишиной : Да
Удаление блоков с тишиной в начале и конце : Нет
При вычислениях CRC использовались нулевые сэмплы : Да
Интерфейс : Установленный внешний ASPI-интерфейс
Выходной формат : Внутренние WAV-операции
Формат сэмплов : 44.100 Гц; 16 бит; стерео
TOC извлечённого CD
Трек | Старт | Длительность | Начальный сектор | Конечный сектор
---------------------------------------------------------------------
1 | 0:00.00 | 2:27.17 | 0 | 11041
2 | 2:27.17 | 4:44.00 | 11042 | 32341
3 | 7:11.17 | 0:20.00 | 32342 | 33841
4 | 7:31.17 | 2:54.11 | 33842 | 46902
5 | 10:25.28 | 3:42.00 | 46903 | 63552
6 | 14:07.28 | 0:28.38 | 63553 | 65690
7 | 14:35.66 | 1:34.00 | 65691 | 72740
8 | 16:09.66 | 4:30.63 | 72741 | 93053
9 | 20:40.54 | 3:20.00 | 93054 | 108053
10 | 24:00.54 | 0:26.00 | 108054 | 110003
11 | 24:26.54 | 3:24.72 | 110004 | 125375
12 | 27:51.51 | 3:22.32 | 125376 | 140557
13 | 31:14.08 | 4:18.30 | 140558 | 159937
14 | 35:32.38 | 3:02.37 | 159938 | 173624
15 | 38:35.00 | 3:32.54 | 173625 | 189578
16 | 42:07.54 | 2:28.15 | 189579 | 200693
17 | 44:35.69 | 4:18.00 | 200694 | 220043
18 | 48:53.69 | 5:10.14 | 220044 | 243307
19 | 54:04.08 | 2:26.15 | 243308 | 254272
Характеристики диапазона извлечения и сообщения об ошибках
Выбранный диапазон
Имя файла G:МузыкаLosslessСмоки МОСмоки МО - Выход Из Темноты (2010)Смоки МО - Выход Из Темноты (2010).wav
Пиковый уровень 100.0 %
Качество диапазона 100.0 %
CRC теста 238826C1
CRC копии 238826C1
Копирование... OK
Ошибок не произошло
AccurateRip: сводка
Трек 1 нет в базе данных
Трек 2 нет в базе данных
Трек 3 нет в базе данных
Трек 4 нет в базе данных
Трек 5 нет в базе данных
Трек 6 нет в базе данных
Трек 7 нет в базе данных
Трек 8 нет в базе данных
Трек 9 нет в базе данных
Трек 10 нет в базе данных
Трек 11 нет в базе данных
Трек 12 нет в базе данных
Трек 13 нет в базе данных
Трек 14 нет в базе данных
Трек 15 нет в базе данных
Трек 16 нет в базе данных
Трек 17 нет в базе данных
Трек 18 нет в базе данных
Трек 19 нет в базе данных
Ни одного трека нет в базе AccurateRip
Конец отчёта

Отчёт Audiochecker:
▼AUDIOCHECKER v2.0 beta (build 457) - by Dester - [email protected]
~~~~~~~~~~~~~~~~~~~~~~~~~~~~~~~~~~
-=== НЕ РЕДАКТИРУЙТЕ ЭТОТ ФАЙЛ! ===-
Путь: ...Смоки МО - Выход Из Темноты (2010)
01 -=- 01 Мой Rock (Вход).wav -=- CDDA (99%)
02 -=- 02 Heyaa (Feat. V-Style & Trova-D).wav -=- CDDA
fbb7dc9eb61513086b17c7c6a4869d2d00f47797(2010) Смоки МО / Выход Из Темноты (Rap) [APE (image+ cue), lossless] (2010) Смоки МО / Выход Из Темноты (Rap) [APE (image+ cue), lossless] " />

Аплоадер: Админ, дата: 11-06-2010, 22:02, торрент скачан: 359 раз

Понравилась раздача? Посмотрите эти:
  • (2007) Morandi / N3xt (Pop) [APE, (image + .cue), lossless]
  • (2010) Баста / Баста 3 (Rap) [APE (image+.cue), lossless]
  • (2010) ST1M / Октябрь (Rap) [APE(image+.cue), lossless]
  • (2010) Хамиль и Змей (Каста) / ХЗ (Rap) [APE(image+.cue), lossless]
  • (2010) Noize MC / Последний Альбом (Rap) [APE(image+.cue), lossless]
  • (2010) Зануда ака Птаха (Centr) / Папиросы (Rap) [FLAC(track+.cue), lossles ...
  • (2010) ДеЦлЪ / Здесь И Сейчас (Rap) [FLAC(track+.cue), lossless]
  • (2010) ДаБац (Da Budz) / Вершки Да Корешки(Rap) [APE (image+.cue), lossless ...
  • (Дискография, 1986 - 1999) Crimson Glory (Progressive Heavy Metal) [FLAC (i ...
  • (2012) Guf / Сам И ... (Rap) [FLAC (tracks+.cue), lossless]
  • (2001, сборник) Технология — Лучшие песни (Поп) [FLAC, lossless]
  • (2007) ЛАСКОВЫЙ МАЙ - Лучшие Песни. Твоя Коллекция (2CD) (Pop) [FLAC (image ...
  • (2009) Guf / Дома (Rap) [APE (image+.cue)]
  • (2010, OST) AC/DC / Iron Man 2 (Hard Rock, Classic Rock) [APE (image+.cue) ...
  • (2010) Смоки МО / Выход Из Темноты (Rap) [MP3, 320/CBR]
  • (2009) Земфира / Z-Sides (Rock) [FLAC(image+.cue), lossless ]
  • (2011) Slim & Konstantah / Азимут (Rap) [ALAC(tracks)lossless]
  • (2006) Би-2 / Лучшие песни (Rock) [FLAC (image+.cue), lossless]
  • (2011) Смоки МО (Некий Молла) / Время Тигра (Rap) [FLAC (tracks+.cue)lossle ...
  • (1995) Steve Morse Band / Structural Damage (Instrumental Rock/Blues Rock/J ...
  • Информация
    Посетители, находящиеся в группе Гости, не могут оставлять комментарии к данной публикации.