вход на сайт

Имя пользователя :
Пароль :

Восстановление пароля Регистрация
(2010) Ассаи / Лифт (Rap) [FLAC(image+.cue), lossless]
Рейтинг:
(голосов: 1)



[img]{THEME}/images/logopost.png[/img]



Исполнитель: Ассаи
Альбом: Лифт
Тип альбома: ЕР
Год выпуска: 2010
Жанр: Rap
Формат: FLAC+.cue
Битрейт: lossless
Log-файл: Присутствует
Продолжительность: 00:18:11

Tреклист:
[03:41] 01. Ассаи - Поколение
[03:13] 02. Ассаи - Остаться
[03:00] 03. Ассаи - Силуэт
[03:37] 04. Ассаи - Лифт
[04:40] 05. Ассаи - Вальс


Отчет EAC: ▼Exact Audio Copy V0.99 prebeta 5 from 4. May 2009

EAC extraction logfile from 8. June 2010, 13:22

Various / -

Used drive: _NECDVD_RW ND-3520A Adapter: 0ID: 0

Read mode : Secure
Utilize accurate stream : Yes
Defeat audio cache: Yes
Make use of C2 pointers : No

Read offset correction: 48
Overread into Lead-In and Lead-Out: No
Fill up missing offset samples with silence : Yes
Delete leading and trailing silent blocks : No
Null samples used in CRC calculations : Yes
Used interface: Installed external ASPI interface

Used output format: User Defined Encoder
Selected bitrate: 128 kBit/s
Quality : High
Add ID3 tag : No
Command line compressor : D:Program FilesExact Audio CopyFlacflac.exe
Additional command line options : -8 -V %s


TOC of the extracted CD

Track | Start|Length| Start sector | End sector
---------------------------------------------------------
1|0:00.00 |3:41.04 | 0|16578
2|3:41.04 |3:13.49 | 16579|31102
3|6:54.53 |2:59.50 | 31103|44577
4|9:54.28 |3:37.29 | 44578|60881
5| 13:31.57 |4:39.68 | 60882|81874
6| 20:43.50 | 23:32.64 | 93275| 199238


Range status and errors

Selected range

Filename C:Documents and SettingsKnJazРабочий столНовая папкаАссаиVarious.wav

Peak level 100.0 %
Range quality 100.0 %
Copy CRC 7695BDCD
8045371bd8fdb02a9e27f60dec1619ff0303a518(2010) Ассаи / Лифт (Rap) [FLAC(image+.cue), lossless] (2010) Ассаи / Лифт (Rap) [FLAC(image+.cue), lossless] " />

Аплоадер: Админ, дата: 10-06-2010, 04:00, торрент скачан: 359 раз

Понравилась раздача? Посмотрите эти:
  • (2002) Urker / Уркер / Made In Kazakhstan (Pop, Ethno) [FLAC (image+.cue), ...
  • (2008) Ассаи / Фаталист (Rap) [Ape(image+.cue), lossless]
  • (2010)Scorpions/Sting In The Tail [FLAC (tracks+cue), lossless]
  • (1989) Kaoma / Lambada (lambada / latin / ethnic) [FLAC (image+.cue), lossl ...
  • (2008) Pink / Funhouse (Pop) [FLAC (tracks) lossless]
  • (Дискография) GORILLAZ (Trip-Hop) [FLAC (tracks + .cue) lossless]
  • (2010) Сергей Трофимов (Трофим) / Всё не важно (Шансон) [FLAC(image+.cue), ...
  • (2010) Eminem / Recovery (Rap / Hip-Hop) [FLAC (tracks+.cue) lossless]
  • (2010) A-HA / 25 (2 CD) (Pop) [FLAC (image + .cue)]
  • (2010) Michael Jackson - Michael (Pop) [FLAC, (tracks+.cue), lossless]
  • (2010) Нюша / Выбирать чудо (Pop) [FLAC(tracks+.cue), lossless]
  • (2011) Scar Symmetry / The Unseen Empire (Melodic Death Metal) [FLAC (image ...
  • (2002) PPK (ППК) / ReLoad. Russian Trance (Trance) [FLAC (tracks+cue), loss ...
  • (2012) Kreator / Phantom Antichrist (Thrash Metal) [FLAC (image+.cue), loss ...
  • (2010) Ne-Yo / Libra Scale (Japanese Edition) (RnB) [FLAC (tracks+.cue) los ...
  • (2010) Rihanna / Loud (R&B) [FLAC (tracks+.cue), lossless]
  • (2009) Miley Cyrus / The Time of Our Lives (Pop) [FLAC (tracks+.cue), lossl ...
  • (2011) Linkin Park / Iridescent (Alternative Rock) [FLAC(image+.cue), lossl ...
  • (2009) Чиж & Co / Лучшее. Золотая коллекция (Rock) [FLAC (image+.cue), loss ...
  • (2011) Stargazery / Eye On The Sky (Heavy Metal) [FLAC (image+.cue), lossle ...
  • (2011) JORN / Live In Black (Heavy/Progressive Metal ) [FLAC (image+.cue), ...
  • (2011) Rammstein / Mein Land (Neue Deutsche Harte, Industrial, Tanz-Metal) ...
  • (2012) Fox / 2012 (Melodic Hard Rock) [FLAC (image +.cue), lossless]
  • (2012) Game Over / For Humanity (Thrash Metal) [FLAC (image+.cue), lossless ...
  • (2010) Punish My Heaven / First Punishment (Melodic Death Metal, Metalcore) ...
  • Информация
    Посетители, находящиеся в группе Гости, не могут оставлять комментарии к данной публикации.