вход на сайт

Имя пользователя :
Пароль :

Восстановление пароля Регистрация
(2010) Krec / Осколки (Rap) [FLAC (tracks+.cue), lossless]
Рейтинг:
(голосов: 1)



[img]{THEME}/images/logopost.png[/img]



Исполнитель: Krec
Страна:
Альбом: Осколки
Тип альбома: Официальный альбом
Год выпуска: 2010
Жанр: Rap/Hip-Hop
Формат: FLAC (tracks+.cue)
Битрейт: lossless
Log-файл: Присутсвует
Продолжительность: 00:48:07

Трэклист:
01. Krec - Intro [00:36]
02. Krec - Незаметно Feat. Алена [02:37]
03. Krec - Не Одинокий Feat. Check [03:24]
04. Krec - Буря и гром [03:02]
05. Krec - К Твоим Ногам [03:23]
06. Krec - Улицы Feat. Ist Sam [03:27]
07. Krec - Каждый День [03:09]
08. Krec - Хип-Хап feat. Dj Halk [02:56]
09. Krec - Ответь Мне [04:13]
10. Krec - Правда Улиц [02:44]
11. Krec - Ближе Feat. Check, Баста [04:09]
12. Krec - Как Воздух [03:32]
13. Krec - В Темноте [03:23]
14. Krec - Еле дыша [03:57]
15. Krec - Блик [03:28]

Отчет EAC:▼Exact Audio Copy V0.99 prebeta 5 from 4. May 2009
Отчёт EAC об извлечении, выполненном 2. июня 2010, 22:53
KRec / Осколки
Дисковод: MATSHITADVD-RAM UJ-841S Adapter: 1ID: 0
Режим чтения : Достоверность
Использование точного потока : Да
Отключение кэша аудио: Да
Использование указателей C2: Нет
Коррекция смещения при чтении : 102
Способность читать области Lead-in и Lead-out : Нет
Заполнение пропущенных сэмплов тишиной: Да
Удаление блоков с тишиной в начале и конце: Нет
При вычислениях CRC использовались нулевые сэмплы : Да
Интерфейс : Встроенный Win32-интерфейс для Win NT/2000
Обработка зазоров : Добавлено к предыдущему треку
Выходной формат: Пользовательский кодировщик
Выбранный битрейт: 1024 kBit/s
Качество : Высокий
Добавление ID3-тэга: Нет
Утилита сжатия : C:Program FilesExact Audio CopyCodecsFlacflac.exe
Дополнительные параметры : --best -T "artist=%a" -T "title=%t" -T "album=%g" -T "date=%y" -T "tracknumber=%n" -T "genre=%m" %s
TOC извлечённого CD
Трек | Старт| Длительность | Начальный сектор | Конечный сектор
---------------------------------------------------------------------
1|0:00.00 |0:36.20 | 0| 2719
2|0:36.20 |2:37.31 |2720|14525
3|3:13.51 |3:24.00 | 14526|29825
4|6:37.51 |3:02.59&nbs
58ebee2b7e2ffacc75338496e63fa4c33170d398(2010) Krec / Осколки (Rap) [FLAC (tracks+.cue), lossless] (2010) Krec / Осколки (Rap) [FLAC (tracks+.cue), lossless] " />

Аплоадер: Админ, дата: 9-06-2010, 16:18, торрент скачан: 359 раз

Понравилась раздача? Посмотрите эти:
  • (2013) Баста / Баста + (при уч.CENTR, Смоки Мо, Словетский (Коснтанта), ST, ...
  • (2013) Баста / Баста + (при уч.CENTR, Смоки Мо, Словетский (Коснтанта), ST, ...
  • (2013) Баста / Баста 4 (Rap, Hip-Hop) [FLAC (Tracks+.Cue), Lossless]
  • (2011) Сэт / Лирика (при уч. Krec) (Rap) [Mp3, 320/CBR]
  • (2012) KREC / Молча проще (Rap) [MP3, 320/CBR]
  • (2008) ST / Сто из Ста (Rap) [FLAC(track+.cue), lossless]
  • (2010) Зануда ака Птаха (Centr) / Папиросы (Rap) [FLAC(track+.cue), lossles ...
  • (2010) ДеЦлЪ / Здесь И Сейчас (Rap) [FLAC(track+.cue), lossless]
  • (2011) Slim (Centr) / Отличай Людей (Rap) [FLAC (tracks+.cue)lossless]
  • (2011) Легенды Про / Желтый Дом (Rap) [FLAC (tracks+.cue), Lossless]
  • (2011) ГРОТ / О Пути По Встречной (Rap) [FLAC (tracks+.cue), lossless]
  • (2012) KREC / Молча проще (Rap) [FLAC (tracks+.cue), lossless]
  • KREC / Нежность (2006)
  • Krec / Блик [2010, Rap, WebRip]
  • (2010) Агата Кристи / Эпилог (Rock) [FLAC (tracks+.cue), lossless]
  • (Дискография) KRec (Rap) [MP3, 128-320/CBR]
  • (2011) Капа / Азиат (Рэп) [FLAC (tracks + .cue)lossless]
  • Krec / Паром через [2011, Rap, WEBRip]
  • Krec / Еле дыша [2011, Rap, WebRip]
  • (2010) 25/17 (Иезекииль 25:17, Ант, Бледный) / Зебра (Rap) [FLAC (tracks+.c ...
  • (2011) Sayaf / Сувенир (Rap | Hip-Hop) [MP3, 320/CBR]
  • KREC / Марафон [2011,Rap,WEBRip]
  • (2011) Ассаи / ОМ (Rap) [FLAC (tracks+.cue), lossless]
  • (2012) KREC и Сэт / 2001-2002 (Rap) [MP3, 128-192/CBR]
  • (2012) KRec / Молча проще (Rap) [mp3, 320/CBR]
  • Информация
    Посетители, находящиеся в группе Гости, не могут оставлять комментарии к данной публикации.