вход на сайт

Имя пользователя :
Пароль :

Восстановление пароля Регистрация
(2010) Хамиль и Змей (Каста) / ХЗ (Rap) [APE(image+.cue), lossless]
Рейтинг:
(голосов: 1)



[img]{THEME}/images/logopost.png[/img]



Исполнитель: Хамиль и Змей (Каста)
Альбом: ХЗ
Тип альбома: Студийный
Год выпуска: 2010
Жанр: Rap
Формат: APE+.cue
Битрейт: lossless
Log-файл: Присутствует
Продолжительность: 01:07:36

Tреклист:
[03:52] 01. Каста - Это Прет
[03:58] 02. Каста - Метла
[00:31] 03. Каста - ХЗ
[03:06] 04. Каста - Пятница
[04:03] 05. Каста - Когда Я Пишу
[03:12] 06. Каста - Закрытый Космос
[05:07] 07. Каста - Шу-Бу-Дам (Feat. Крестная Семья, Искра)
[02:59] 08. Каста - Прыгать Высоко
[03:53] 09. Каста - Миллиард Лет (Feat. Влади и Шым)
[03:08] 10. Каста - Самый Счастливый Человек
[01:22] 11. Каста - В Зоопарке (Скит)
[03:34] 12. Каста - Бананы, Гориллы
[03:10] 13. Каста - Встретимся У Холодильника
[04:32] 14. Каста - Заза и Бака (Feat. Искра)
[04:00] 15. Каста - Муза (Feat. Искра)
[03:46] 16. Каста - Новая Ступень (Feat. Guf)
[00:21] 17. Каста - Куда Вам? (Скит)
[03:01] 18. Каста - Натурпродукт
[03:52] 19. Каста - Такое Чувство
[04:04] 20. Каста - Viva La Revolucion (Feat. Ноггано)
[02:05] 21. Каста - Один Мотив

Отчет EAC: ▼
Exact Audio Copy V0.99 prebeta 5 from 4. May 2009

Отчёт EAC об извлечении, выполненном 20. мая 2010, 19:06

Каста / ХЗ

Дисковод: ASUSDRW-1814BL Adapter: 1ID: 0

Режим чтения : Достоверность
Использование точного потока : Да
Отключение кэша аудио: Да
Использование указателей C2: Нет

Коррекция смещения при чтении : 6
Способность читать области Lead-in и Lead-out : Нет
Заполнение пропущенных сэмплов тишиной: Да
Удаление блоков с тишиной в начале и конце: Нет
При вычислениях CRC использовались нулевые сэмплы : Да
Интерфейс : Встроенный Win32-интерфейс для Win NT/2000

Выходной формат : Внутренние WAV-операции
Формат сэмплов: 44.100 Гц; 16 бит; стерео

TOC извлечённого CD

Трек | Старт| Длительность | Начальный сектор | Конечный сектор
---------------------------------------------------------------------
1|0:00.00 |3:52.10 | 0|17409
2|3:52.10 |3:58.39 | 17410|35298
3|7:50.49 |0:31.23 | 35299|37646
4|8:21.72 |3:05.49 | 37647|51570
5| 11:27.46 |4:06.26 | 51571|70046
6| 15:33.72 |&
c5562a9a730b4a1bfae7ab641395f62565789f7a(2010) Хамиль и Змей (Каста) / ХЗ (Rap) [APE(image+.cue), lossless] (2010) Хамиль и Змей (Каста) / ХЗ (Rap) [APE(image+.cue), lossless] " />

Аплоадер: Админ, дата: 21-05-2010, 03:56, торрент скачан: 359 раз

Понравилась раздача? Посмотрите эти:
  • (2013) Чаян Фамали / Фитиль (при уч.Влади (Каста), Жара (ex. Песочные Люди) ...
  • Змей (Каста) feat. Чаян Фамали / Мне Бы Стать Выше [2013, Rap,Hip-Hop, WebR ...
  • (2005 Сборник) Каста / Музыка из альбомов (Instrumentals / Русский Рэп) [MP ...
  • (2008 Сборник) КАСТА / Сборник минусов (Instrumentals / Русский Рэп) [MP3 1 ...
  • Каста (Хамиль и Змей) / Когда я пишу [2010, Rap, WEBRip]
  • (2010) Хамиль и Змей (Каста) / ХЗ (Rap) [MP3, 320/CBR]
  • Хамиль и Змей (Каста) / Парный прогон [2010, Rap, SATRip]
  • Каста / Закрытый космос [2010, Rap, WEBRip]
  • Каста / Закрытый космос [2010, Rap, WEBRip]
  • Каста / Метла [2011, Rap, HDRip]
  • Каста / Миллиард лет [2011, Rap, HDRip]
  • Каста / Это прет [2011, Rap, WebRip]
  • (2011) Каста и Ансамбль Ростовской Консерватории / Инструментальная Музыка ...
  • Каста / Такое чувство [ 2011, Rap, WEBRip ]
  • (2011) Змей (Каста) и Жара (Песочные люди) / Жаз Дуэт (Rap) [Mp3, 320/CBR]
  • Влади (Каста) Feat. Уля (Wow Band) / Сочиняй Мечты [2012, Rap, WeRip]
  • Каста / Это прёт (Dubstep Rmx. by GeneticBros) [2012, Rap, Dubstep, WebRip ...
  • (2012) Влади (Каста) / Ясно (Hip-Hop) [MP3, 320/CBR]
  • (2012) Западный Сектор (Объединенная Каста) /Мысли на бумаге (Rap) [MP3, 12 ...
  • (2012) Влади (Каста) / Ясно! (Rap) [ FLAC (tracks+.cue), lossless]
  • (2012) Каста / Можно Все (Rap, Hip-Hop ) [MP3, 320/CBR]
  • Влади (Каста) / Пусть пригодится [2012, Rap, HDRip]
  • Каста (при уч. Леонид Климин) / Тебе в прикол [2012, Rap, HDRip]
  • Влади Каста / Прощание [ 2012, Rap, HDRip ]
  • Гига, ST, Хамиль (Каста) / С новым годом, мама [2012, Rap,Hip-Hop,WebRip]
  • Информация
    Посетители, находящиеся в группе Гости, не могут оставлять комментарии к данной публикации.