вход на сайт

Имя пользователя :
Пароль :

Восстановление пароля Регистрация
(2010) ST1M / Октябрь (Rap) [APE(image+.cue), lossless]
Рейтинг:
(голосов: 1)



[img]{THEME}/images/logopost.png[/img]



Исполнитель: ST1M
Альбом: Октябрь
Тип альбома: Студийный
Год выпуска: 2010
Жанр: Rap
Формат: APE+.cue
Битрейт: lossless
Log-файл: Присутствует
Продолжительность: 00:44:28

Tреклист:
[03:46] 01. Stim - Октябрь
[03:05] 02. Stim - Мой WI
[03:18] 03. Stim - Свет
[03:29] 04. Stim - Когда Я Открою Глаза
[03:31] 05. Stim - Уличный Блюз
[03:23] 06. Stim - Хочу Знать
[03:51] 07. Stim - Мама Любит Меня
[03:17] 08. Stim - Варадеро
[03:16] 09. Stim - Он Мой Друг
[03:04] 10. Stim - Вороны
[03:45] 11. Stim - Музыка
[03:13] 12. Stim - Сказки На Ночь
[03:30] 13. Stim - Иду На Таран (OST Мы Из Будущего-2)

Отчет EAC: ▼Exact Audio Copy V0.99 prebeta 4 from 23. January 2008

Отчёт EAC об извлечении, выполненном 1. мая 2010, 9:51

Stim / Октябрь

Дисковод: HL-DT-STDVD-RW_GSA-H41N Adapter: 0ID: 1

Режим чтения : Достоверность
Использование точного потока : Да
Отключение кэша аудио: Да
Использование указателей C2: Нет

Коррекция смещения при чтении : 667
Способность читать области Lead-in и Lead-out : Нет
Заполнение пропущенных сэмплов тишиной: Да
Удаление блоков с тишиной в начале и конце: Нет
При вычислениях CRC использовались нулевые сэмплы : Да
Интерфейс : Установленный внешний ASPI-интерфейс

Выходной формат : Внутренние WAV-операции
Формат сэмплов: 44.100 Гц; 16 бит; стерео


TOC извлечённого CD

Трек | Старт| Длительность | Начальный сектор | Конечный сектор
---------------------------------------------------------------------
1|0:00.00 |3:46.53 | 0|17002
2|3:46.53 |3:04.28 | 17003|30830
3|6:51.06 |3:18.65 | 30831|45745
4| 10:09.71 |3:28.40 | 45746|61385
5| 13:38.36 |3:30.41 | 61386|77176
6| 17:09.02 |3:23.67 | 77177|92468
3133f46ee0dd637f3c9f139caacd98038e47f5b3(2010) ST1M / Октябрь (Rap) [APE(image+.cue), lossless] (2010) ST1M / Октябрь (Rap) [APE(image+.cue), lossless] " />

Аплоадер: Админ, дата: 4-05-2010, 16:32, торрент скачан: 359 раз

Понравилась раздача? Посмотрите эти:
  • (2000) Tic Tac Toe / Ist der Ruf erst ruiniert... (Rap,Hip-hop) [Lossless, ...
  • (2008) НоГГано / Первый (Rap) [APE(image+cue), lossless]
  • (1994) Joy / Grand Collection (EuroDisco) [FLAC (image+.cue) lossless]
  • (2010) Ласковый Май (Солист Юра Шатунов) / Оригинальные записи 1988-1989 (2 ...
  • (2010) Баста / Баста 3 (Rap) [APE (image+.cue), lossless]
  • (2006) Батырхан Шукенов/ Отан Ана (Pop) [FLAC (image+.cue) lossless]
  • (2010) Батыр / Осторожно, милая девушка! (Pop) [FLAC (image+ cue)]
  • (2010) Noize MC / Последний Альбом (Rap) [APE(image+.cue), lossless]
  • (2010) ДиДюЛя / Аромат (flamenco, instrumental, folk) [APE (image + .cue), ...
  • (1984) Boney M / Ten Thousand Lightyears (Disco) [APE (image+.cue) lossles ...
  • (2010) ДаБац (Da Budz) / Вершки Да Корешки(Rap) [APE (image+.cue), lossless ...
  • (2011) Within Temptation / The Unforgiving (Symphonic Gothic Metal) [FLAC ( ...
  • (2008) STIM AXEL - На Радиоволнах (drum and bass) [mp3 320CBR]
  • (2007) STIM AXEL - Сначала (DrumnBass) [mp3 128CBR]
  • (2006) STIM AXEL / ТИШИНА (Drum & Bass) [MP3 320CBR]
  • (2010) Stim Axel / Acoustica (Drum and Bass) [MP3, 320 / CBR]
  • (2003) THE BLACK EYED PEAS / Elephunk (RnB) [Ape (image+.cue), lossless]
  • (2009) Rihanna / Rated R (R`n`B) [APE (image+.cue)]
  • (2009) Guf / Дома (Rap) [APE (image+.cue)]
  • (1993) Любовь Успенская / Любимый (шансон) [APE (image+.cue), lossless]
  • (2009) Челси / Точка возврата (Pop) [APE (image+.cue), lossless]
  • (2009, Cборник) Madonna / Greatest Hits [CD1 + CD2] (Pop) [APE (image+.cue) ...
  • (2010) Lara Fabian / The Best of (2CD Limited Edition) (Pop) [Flac(image+.c ...
  • (2004) Ex-Сектор Газа / Огненный рай (Punk-Rock) [FLAC (image+.cue), lossle ...
  • (2008) Студия 80 / Придуманный Мир (Pop) [FLAC (image+.cue), lossless]
  • Информация
    Посетители, находящиеся в группе Гости, не могут оставлять комментарии к данной публикации.