вход на сайт

Имя пользователя :
Пароль :

Восстановление пароля Регистрация
(2010) Баста / Баста 3 (Rap) [APE (image+.cue), lossless]
Рейтинг:
(голосов: 1)



[img]{THEME}/images/logopost.png[/img]



Исполнитель: Баста
Альбом: Баста 3
Тип альбома: Студийный (LP)
Год выпуска: 2010
Жанр: Rap
Формат: APE(image+.cue)
Битрейт: lossless
Log-файл: Присутсвует
Продолжительность: 01:23:21

Tреклист:
CD 1
01. Урбан (Под Куполом) (04:12)
02. Деньги (03:19)
03. Олимпиада 80 (05:09)
04. Ростов (Feat. Тати) (04:33)
05. Кинолента (04:23)
06. Ходим По Краю (Feat. Guf) (03:27)
07. Детка (Feat. DJ Даша Пушкина) (03:40)
08. Свобода (Feat. Искра) (03:44)
09. Россия (04:10)
10. Театр (05:21)
CD 2
11. Обернись (Feat. Город 312) (04:00)
12. Хэндз Ап! (04:03)
13. Отпускаю (03:54)
14. 8800 (Дворняга) (02:25)
15. Один (Feat. Смоки Мо) (05:06)
16. Босанова (03:25)
17. Москва (05:32)
18. Любовь Без Памяти (Feat. Тати) (03:29)
19. Солнца Не Видно (Feat. Boombox) (04:58)
20. Кастинг (04:20)

Отчет EAC CD1:
▼Exact Audio Copy V0.99 prebeta 4 from 23. January 2008

Отчёт EAC об извлечении, выполненном 30. апреля 2010, 17:12

Баста / Баста 3 (CD 1)

Дисковод: HL-DT-STDVD-RW_GSA-H41N Adapter: 0ID: 1

Режим чтения : Достоверность
Использование точного потока : Да
Отключение кэша аудио: Да
Использование указателей C2: Нет

Коррекция смещения при чтении : 667
Способность читать области Lead-in и Lead-out : Нет
Заполнение пропущенных сэмплов тишиной: Да
Удаление блоков с тишиной в начале и конце: Нет
При вычислениях CRC использовались нулевые сэмплы : Да
Интерфейс : Установленный внешний ASPI-интерфейс

Выходной формат : Внутренние WAV-операции
Формат сэмплов: 44.100 Гц; 16 бит; стерео


TOC извлечённого CD

Трек | Старт| Длительность | Начальный сектор | Конечный сектор
---------------------------------------------------------------------
1|0:00.00 |4:12.54 | 0|18953
2|4:12.54 |3:19.20 | 18954|33898
3|7:31.74 |5:09.11 | 33899|57084
4| 12:41.10 |4:33.33 | 57085|77592
5| 17:14.43 |4:23.24 | 77593|97341
6| 21:37.67 |3:27.12 | 
7478b3a372ea095495aa46e8d13b90a5995f97f4(2010) Баста / Баста 3 (Rap) [APE (image+.cue), lossless] (2010) Баста / Баста 3 (Rap) [APE (image+.cue), lossless] " />

Аплоадер: Админ, дата: 1-05-2010, 02:35, торрент скачан: 359 раз

Понравилась раздача? Посмотрите эти:
  • (2013) Баста / Баста 4 (Rap, Hip-Hop) [FLAC (Tracks+.Cue), Lossless]
  • (2013) Баста / Баста 4 (при уч.Смоки Мо, Рем Дигга, Тати, Нервы, Грин Грей, ...
  • (2000) Tic Tac Toe / Ist der Ruf erst ruiniert... (Rap,Hip-hop) [Lossless, ...
  • (2008) НоГГано / Первый (Rap) [APE(image+cue), lossless]
  • (2007) Morandi / N3xt (Pop) [APE, (image + .cue), lossless]
  • (2010) ST1M / Октябрь (Rap) [APE(image+.cue), lossless]
  • (2010) Хамиль и Змей (Каста) / ХЗ (Rap) [APE(image+.cue), lossless]
  • (2010) Noize MC / Последний Альбом (Rap) [APE(image+.cue), lossless]
  • (2010) Krec / Осколки (Rap) [FLAC (tracks+.cue), lossless]
  • (2010) Смоки МО / Выход Из Темноты (Rap) [APE (image+ cue), lossless]
  • (2010) Зануда ака Птаха (Centr) / Папиросы (Rap) [FLAC(track+.cue), lossles ...
  • (2010) ДиДюЛя / Аромат (flamenco, instrumental, folk) [APE (image + .cue), ...
  • (2010) ДеЦлЪ / Здесь И Сейчас (Rap) [FLAC(track+.cue), lossless]
  • (2010) ДаБац (Da Budz) / Вершки Да Корешки(Rap) [APE (image+.cue), lossless ...
  • (2011) Within Temptation / The Unforgiving (Symphonic Gothic Metal) [FLAC ( ...
  • (2009) Rihanna / Rated R (R`n`B) [APE (image+.cue)]
  • (2006,2007) БАСТА - 2 альбома (Rap) [APE (image+.cue), lossless]
  • (2009) Guf / Дома (Rap) [APE (image+.cue)]
  • Баста feat.Тати / Калифорния [2010,Rap, Hip-Hop,DVDRip]
  • (2009) Челси / Точка возврата (Pop) [APE (image+.cue), lossless]
  • (2009, Cборник) Madonna / Greatest Hits [CD1 + CD2] (Pop) [APE (image+.cue) ...
  • (2011) Капа / Азиат (Рэп) [FLAC (tracks + .cue)lossless]
  • (2011) Slim & Konstantah / Азимут (Rap) [ALAC(tracks)lossless]
  • (2010) 25/17 (Иезекииль 25:17, Ант, Бледный) / Зебра (Rap) [FLAC (tracks+.c ...
  • (2008) Студия 80 / Придуманный Мир (Pop) [FLAC (image+.cue), lossless]
  • Информация
    Посетители, находящиеся в группе Гости, не могут оставлять комментарии к данной публикации.