вход на сайт

Имя пользователя :
Пароль :

Восстановление пароля Регистрация
(2008) Капа и Картель / Гламурным (Rap) [Ape(image+ cue), lossless]
Рейтинг:
(голосов: 1)



[img]{THEME}/images/logopost.png[/img]



Исполнитель : Капа и Картель

Альбом :Гламурным

Тип альбома : Студийный

Год выпуска : 2008

Жанр : RaP

Формат : Ape+.cue

Битрейт : lossless

Log-файл: Присутствует

Продолжительность : 00:48:56

Tрэклист:

01. Шум района (00:25)
02. Капа и Картель (04:00)
03. Гламурным… (04:10)
04. С корешами на хазе (03:49)
05. Суки хранят молчание (04:09)
06. Там на небе богам # 2 ( 04:14)
07. Сука (03:50)
08. Пивка прибил пинту (03:41)
09. Судно покидает док (04:12)
10. Кто быдло?! (04:14)
11. Порно под ракурсом (04:09)
12. Пара пилоток (03:50)
13. В кого ты веришь, брат? (04:09)

Отчёт EAC:

▼Exact Audio Copy V0.99 prebeta 4 from 23. January 2008

EAC extraction logfile from 25. October 2008, 3:03

- / -

Used drive: TSSTcorpCDDVDW SH-S203B Adapter: 2ID: 1

Read mode : Secure
Utilize accurate stream : Yes
Defeat audio cache: Yes
Make use of C2 pointers : No

Read offset correction: 6
Overread into Lead-In and Lead-Out: No
Fill up missing offset samples with silence : Yes
Delete leading and trailing silent blocks : No
Null samples used in CRC calculations : Yes
Used interface: Installed external ASPI interface

Used output format : Internal WAV Routines
Sample format: 44.100 Hz; 16 Bit; Stereo


TOC of the extracted CD

Track | Start|Length| Start sector | End sector
---------------------------------------------------------
1|0:00.00 |0:25.55 | 0| 1929
2|0:25.55 |4:00.15 |1930|19944
3|4:25.70 |4:10.00 | 19945|38694
4|8:35.70 |3:49.02 | 38695|55871
5| 12:24.72 |4:09.42 | 55872|74588
6| 16:34.39 |4:14.10 | 74589|93648
7| 20:48.49 |3:50.35 | 93649| 110933
8| 24:39.09 |3:41.10 |110934| 127518
9| 28:20.19 |4:12.21 |127519| 146439
10&nbs
ef4e743ff805d392aac7dd2bdcf2499978e2b55d(2008) Капа и Картель / Гламурным (Rap) [Ape(image+ cue), lossless] (2008) Капа и Картель / Гламурным (Rap) [Ape(image+ cue), lossless] " />

Аплоадер: Админ, дата: 24-02-2010, 19:21, торрент скачан: 359 раз

Понравилась раздача? Посмотрите эти:
  • Булат Окуджава — Российские Барды — 2002, WAVPack (image+.cue), lossless
  • (Дискография) ДЕЛЬФИН (DOLPHIN) (Alternative) [WavPack/image+cue, lossless] ...
  • (2007) GORILLAZ / D-Sides [Japan Edition] (Hip-Hop) [FLAC (image+cue), loss ...
  • (2008) Ассаи / Фаталист (Rap) [Ape(image+.cue), lossless]
  • (1989) Kaoma / Lambada (lambada / latin / ethnic) [FLAC (image+.cue), lossl ...
  • (2008) Pink / Funhouse (Pop) [FLAC (tracks) lossless]
  • (2010) Сергей Трофимов (Трофим) / Всё не важно (Шансон) [FLAC(image+.cue), ...
  • (2010) Ассаи / Лифт (Rap) [FLAC(image+.cue), lossless]
  • (2008) The Magic Of Nomads / Bulbul Zaman (folk-ethnic / smooth jazz / inst ...
  • (2010) Алиса / Ъ (The Hard Sign) (Hard Rock) [WavPack (iso.wv (image+.cue)) ...
  • (2007) Константин Никольский / Иллюзии (Rock) [APE (image + .cue), lossless ...
  • (2008) Юрий Наумов / Рок как будто Блюз (Blues) [FLAC (Image+.cue), lossles ...
  • (2009) D-Man 55 / 7.62 Б-30 (Rap) [FLAC (image+.cue) lossless]
  • (2011) 3 Doors Down / Time Of My Life [Deluxe Edition] (Alternative Rock/Po ...
  • (1996) DJ Dado / The Album (Electronic, Dream trance) [FLAC (image+.сue), l ...
  • (2010) 2Pac / Greatest Hits (Rap & Hip Hop) [APE (image+.cue), lossless]
  • (2012) Сергей Васюта и Сладкий Сон / На белом покрывале января... (Pop) [Fl ...
  • (2007) Fausto Papetti / Papetti Gold (Instrumental, Easy Listening) [FLAC ( ...
  • Капа и Картель / Сборник клипов (2008-2009)
  • (1976) The Eagles / Hotel California [Japan Remastered] (Country Rock) [FLA ...
  • Капа и Картель / Кто быдло? [2008,Rap,DVDRip]
  • (2011) Yanni / Truth Of Touch (New Age) [FLAC (image+ .cue),lossless]
  • (Дискография, 2004-2011) Капа (Rap) [MP3, 96-320 kbps/CBR]
  • (2011) Стас Михайлов / Только ты (Шансон) [Flac(image+.cue)Lossless]
  • (2012) Crippled Black Phoenix / (Mankind) The Crafty Ape (Alternative/Indie ...
  • Информация
    Посетители, находящиеся в группе Гости, не могут оставлять комментарии к данной публикации.