вход на сайт

Имя пользователя :
Пароль :

Восстановление пароля Регистрация
(2008) Ассаи / Фаталист (Rap) [Ape(image+.cue), lossless]
Рейтинг:
(голосов: 1)



[img]{THEME}/images/logopost.png[/img]



Исполнитель: Ассаи
Альбом: Фаталист
Тип альбома: Студийный
Год выпуска: 2008
Жанр: Rap
Формат: APE+.сue
Битрейт: lossless
Log-файл: Присутствует
Продолжительность: 00:45:39

Tреклист:
[02:20] 01. Ассаи - Полкан
[02:41] 02. Ассаи - Монами
[03:31] 03. Ассаи - Навсегда
[02:55] 04. Ассаи - Безразличие
[02:56] 05. Ассаи - В Точку
[02:57] 06. Ассаи - Голос
[02:39] 07. Ассаи - Дневники
[03:28] 08. Ассаи - Рай
[02:32] 09. Ассаи - Проекция
[04:21] 10. Ассаи - Летя На Огонь
[03:15] 11. Ассаи - На Безлюдной Войне
[03:11] 12. Ассаи - Остановка
[02:49] 13. Ассаи - Пепел
[03:06] 14. Ассаи - Расстояние
[02:58] 15. Ассаи - Неосторожно

Отчет EAC:
▼Exact Audio Copy V0.99 prebeta 4 from 23. January 2008

EAC extraction logfile from 12. December 2009, 1:12

Ассаи / Фаталист

Used drive: ASUSDRW-1608P Adapter: 0ID: 0

Read mode : Secure
Utilize accurate stream : Yes
Defeat audio cache: Yes
Make use of C2 pointers : No

Read offset correction: 48
Overread into Lead-In and Lead-Out: No
Fill up missing offset samples with silence : Yes
Delete leading and trailing silent blocks : No
Null samples used in CRC calculations : Yes
Used interface: Native Win32 interface for Win NT & 2000

Used output format : Internal WAV Routines
Sample format: 44.100 Hz; 16 Bit; Stereo


TOC of the extracted CD

Track | Start|Length| Start sector | End sector
---------------------------------------------------------
1|0:00.00 |2:22.26 | 0|10675
2|2:22.26 |2:41.30 | 10676|22780
3|5:03.56 |3:30.25 | 22781|38555
4|8:34.06 |2:55.54 | 38556|51734
5| 11:29.60 |2:56.07 | 51735|64941
6| 14:25.67 |2:56.33 | 64942|78174
7| 17:22.25 |2:38.61 | 78175|90085
8| 20:01.11 |3:28.14 | 90086| 105699
9| 23:29.25 |2:32.12 |105700| 117
2309e3c683558d10b0011a0f375e5fc8932775b6(2008) Ассаи / Фаталист (Rap) [Ape(image+.cue), lossless] (2008) Ассаи / Фаталист (Rap) [Ape(image+.cue), lossless] " />

Аплоадер: Админ, дата: 21-02-2010, 05:18, торрент скачан: 359 раз

Понравилась раздача? Посмотрите эти:
  • (2013) Ассаи / Live in Moscow (Rap, Hip-Hop) [MP3, 320 kbps/ CBR]
  • (2013) Ассаи / Задеть за мёртвое (Rap, Hip-Hop) [FLAC (Tracks+.Cue), Lossle ...
  • (Дискография) ДЕЛЬФИН (DOLPHIN) (Alternative) [WavPack/image+cue, lossless] ...
  • (2008) Капа и Картель / Гламурным (Rap) [Ape(image+ cue), lossless]
  • (2008) Pink / Funhouse (Pop) [FLAC (tracks) lossless]
  • (2010) Ассаи / Лифт (Rap) [FLAC(image+.cue), lossless]
  • (2010) Алиса / Ъ (The Hard Sign) (Hard Rock) [WavPack (iso.wv (image+.cue)) ...
  • (2007) Константин Никольский / Иллюзии (Rock) [APE (image + .cue), lossless ...
  • (2008) Юрий Наумов / Рок как будто Блюз (Blues) [FLAC (Image+.cue), lossles ...
  • (2010) 2Pac / Greatest Hits (Rap & Hip Hop) [APE (image+.cue), lossless]
  • (2005) Ассаи - Другие Берега (Russian Rap) [MP3, 320kbps, CBR]
  • (1976) The Eagles / Hotel California [Japan Remastered] (Country Rock) [FLA ...
  • Ассаи feat. Maestro A-Sid / Силуэт [2010, Rap, HDRip]
  • Ассаи / Южные Сны [2010, Rap, WEBRip]
  • (Дискография) KRec (Rap) [MP3, 128-320/CBR]
  • (2011) Yanni / Truth Of Touch (New Age) [FLAC (image+ .cue),lossless]
  • (2011) Стас Михайлов / Только ты (Шансон) [Flac(image+.cue)Lossless]
  • (2009) Чиж & Co / Лучшее. Золотая коллекция (Rock) [FLAC (image+.cue), loss ...
  • (2011) Ассаи / ОМ (Rap) [FLAC (tracks+.cue), lossless]
  • (Дискография, 2005-2011) Ассаи (Hip-Hop Lyrics) [mp3, 320kbps/CBR]
  • Ассаи / Художник [2012, Rap, WebRip]
  • (2012) Crippled Black Phoenix / (Mankind) The Crafty Ape (Alternative/Indie ...
  • Ассаи / Столько жизни [2012, Rap, WebRip]
  • (2012) Ассаи / Девственность (EP) (Rap) [MP3, 320/CBR]
  • Ассаи / Планета Эксперимента [2012, Rap, WEBRip]
  • Информация
    Посетители, находящиеся в группе Гости, не могут оставлять комментарии к данной публикации.