вход на сайт

Имя пользователя :
Пароль :

Восстановление пароля Регистрация
(2012) Три Кита (Зануда, Gipsy King, Тато) / Три Кита (Rap) [FLAC (tracks+.cue), lossless]
Рейтинг:
(голосов: 1)



[img]{THEME}/images/logopost.png[/img]



*Исполнитель: Три Кита (Зануда, Gipsy King, Тато)
*Страна: Россия, г.Москва
*Альбом: Три Кита
*Тип альбома: Студийный
*Год выпуска: 2012
*Жанр: Rap
*LOG-Файлы: Присутствуют
*Сканы: Отсутствуют
*Аудиокодек: FLAC (*.flac)
*Тип рипа: tracks+.cue
*Битрейт: lossless
*Продолжительность: 00:48:39


*Tреклист:
01. Скит 1[01:21]
02. Гербарий[03:08]
03. Железяка[04:19]
04. Хит 3[03:50]
05. Лизер[04:08]
06. Кидалово[02:30]
07. Шишкин лес[03:19]
08. Скит вопрос[00:29]
09. Боря Аллигатор[05:36]
10. Скит снег[00:56]
11. Снег[04:05]
12. Стайл[03:12]
13. Скит Мэри[00:35]
14. Мэри[03:02]
15. Вес[03:53]
16. На на на[03:12]
17. Хит 3 (Радио версия)[03:50]
18. Скит 2[02:03]

Лог создания рипа ▼TextExact Audio Copy V1.0 beta 3 from 29. August 2011

Отчёт EAC об извлечении, выполненном 8. декабря 2012, 17:12

Три Кита / Три Кита

Дисковод: Optiarc DVD RW AD-5170A Adapter: 0 ID: 0

Режим чтения : Достоверность
Использование точного потока : Да
Отключение кэша аудио : Да
Использование указателей C2 : Нет

Коррекция смещения при чтении : 48
Способность читать области Lead-in и Lead-out : Нет
Заполнение пропущенных сэмплов тишиной : Да
Удаление блоков с тишиной в начале и конце : Нет
При вычислениях CRC использовались нулевые сэмплы : Да
Интерфейс : Встроенный Win32-интерфейс для Win NT/2000
Обработка зазоров : Добавлено к предыдущему треку

Выходной формат : Пользовательский кодировщик
Выбранный битрейт : 128 kBit/s
Качество : Высокий
Добавление ID3-тега : Нет
Утилита сжатия : C:Program FilesExact Audio CopyFlacflac.exe
Дополнительные параметры : -V -8 -T "Genre=%genre%" -T "Artist=%artist%" -T "Title=%title%" -T "Album=%albumtitle%" -T "Date=%year%" -T "Tracknumber=%tracknr%" -T "Comment=%comment%" %source%

TOC извлечённого CD

Трек | Старт | Длительность | Начальный сектор | Конечный сектор
---------------------------------------------------------------------
1 | 0:00.00 | 1:21.25 | 0 | 6099
2 | 1:21.25 | 3:08.26 | 6100 | 20225
3 | 4:29.51 | 4:19.12 | 20226 | 39662
4 | 8:48.63 | 3:49.66 | 39663 | 56903
5 | 12:38.54 | 4:08.27 | 56904 | 75530
6 | 16:47.06 | 2:29.74 | 75531 | 86779
7 | 19:17.05 | 3:19.29 | 86780 | 101733
&nb
726ba18341ed6cf982b2caa824b9b43ca0fd6b2f(2012) Три Кита (Зануда, Gipsy King, Тато) / Три Кита (Rap) [FLAC (tracks+.cue), lossless] (2012) Три Кита (Зануда, Gipsy King, Тато) / Три Кита (Rap) [FLAC (tracks+.cue), lossless] " />

Аплоадер: Админ, дата: 1-02-2013, 12:05, торрент скачан: 359 раз

Понравилась раздача? Посмотрите эти:
  • (2013) Ahimas / Алатан (Rap, Hip-Hop) [FLAC (Tracks+.Cue), Lossless]
  • (2013) Смоки Мо / Младший (Rap, Hip-Hop) [FLAC (Tracks+.Cue), Lossless]
  • (2013) Маклай и Ганза / Статус-Кво (Rap, Hip-Hop) [FLAC (Tracks+.Cue), Loss ...
  • (2013) Lone / Спутник (Rap, Hip-Hop) [FLAC (Tracks+.Cue), Lossless]
  • (2013) Баста / Баста 4 (Rap, Hip-Hop) [FLAC (Tracks+.Cue), Lossless]
  • (2013) Loc-Dog & Tony VA / Все знают всё (Rap, Hip-Hop) [FLAC (Tracks+.Cue ...
  • (1989) Fausto Papetti / Magic Sax [Vol. 2] (Instrumental) [FLAC (tracks+.cu ...
  • (2012) Рем Дигга / Черника (Rap) [FLAC (tracks+.cue), lossless]
  • (2012) Guf / Сам И ... (Rap) [FLAC (tracks+.cue), lossless]
  • (2012) Триада / Мои глаза открыты (Rap) [FLAC (tracks+.cue), lossless]
  • (2012) KREC / Молча проще (Rap) [FLAC (tracks+.cue), lossless]
  • (2012) Brick Bazuka / Слои (Rap) [FLAC (tracks+.cue), lossless]
  • (2012) Птаха / Старые тайны (Rap) [FLAC (tracks+.cue), lossless]
  • Три Кита (Зануда, Gipsy King, Тато) / На На На [2012, Rap,Hip-Hop, WebRip]
  • (2011) Ассаи / ОМ (Rap) [FLAC (tracks+.cue), lossless]
  • Три Кита (Зануда, Gipsy King, Тато) / Снег [2012, Rap, WEBRip]
  • Три Кита (Зануда, Gipsy King и Тато) / Снег [2012, Rap, HDRip]
  • (2012) Словетский / Мозайка (Rap) [FLAC (tracks+.cue), lossless]
  • (2012) Зануда, Gipsy King, Тато / Три кита (Rap) [MP3, 320/CBR]
  • Три Кита (Зануда, Gipsy King, Тато) / Поднимите Руки [2012, Rap, WebRip]
  • Информация
    Посетители, находящиеся в группе Гости, не могут оставлять комментарии к данной публикации.